Мега распродажа FORZA HORIZON 4 ULTIMATE+ВСЕ DLC+ОНЛАЙН всего за 499р. 349 руб. (супер цена). Внимание количество ограничено!!!

iTunes

1+1

iTunes

мы

iTunes

1

iTunes

Чернобыль

1 сезон

Ральф против интернета

Лицензия

ПШазам

Лицензия

Игра престолов

Лицензия

30
pack

ВАЖНО

!!Акция!!

Alien_RageХит недели

RePack

Resident Evil 21

ИГРА 18+

pack

RePack

Metro:Exodus

!!Акция!!

Alien_Rage

RePack

fifa19

RePack

Assassins Creed: Odyssey

RePack

NEED FOR SPEED™ PAYBACK

3 сезон

9 сезон

Бесстыжие 9 сезон

Все сериалы

все сериалы на PB.wtf

RePack

FAR CRY 5
Ребята, катастрофически не хватает 7730р. для оплаты серверов за ИЮЛЬ (всвязи с блокировками трафик упал в 3 раза), 1-2р., выручайте.
  

Утренняя звезда / Рыцарь колдовства / Morning Star (Люка Бони / Luca Boni, Марко Ристори / Marco Ristori) [2014, Италия, фэнтези, боевик, триллер, BDRip 720p, Любительский (одноголосый) [Xixidok]+ENG pb.wtf

Утренняя звезда через торрент pb.wtf

Размер: 4.02 GB | Добавлен: 4 года 8 мес. назад | Торрент скачан:103 раза
Скачать  

29-11-2014 04:12 Утренняя звезда Скачать торрент  

Утренняя звезда / Рыцарь колдовства / Morning Star
«Бороться со злом»


  • Год выпуска: 2014
  • Страна: Италия
  • Жанр: фэнтези, боевик, триллер, приключения
  • Продолжительность: 01:30:41
  • Перевод: Любительский (одноголосый) [Xixidok]- перевод на русский язык [river11]
  • Субтитры: русские
  • Режиссер: Люка Бони / Luca Boni, Марко Ристори / Marco Ristori
  • В ролях:

    Адриан Буше, Майк Митчелл, Дэниэл Вивиан, Айви Корбин, Элли МакКлелланд, Дэвид Уайт

  • Описание:
    После смертельной битвы воин несёт на себе тело убитого друга, чтобы похоронить дома, как они друг другу обещали. По дороге ему приходится выдержать ряд испытаний, а в конце пути он неожиданно для себя находит разгадку своего предназначения...
  • Рейтинг:



  • Качество: BDRip 720p
  • Формат: :MKV
  • Видео кодек: AVC
  • Аудио кодек: AC3, DTS
  • Видео: 1280x544 (2.35:1), 5400 kbps, 24 fps, 0,323 bpp
  • Аудио №1: русский / 2.0 / 48 kHz / 192 kbps / 16 bit
  • Аудио №2: английский / 5.1 / 48 kHz / 755 kbps / 16 bit
  • Релиз от: GEKADOL



    Код:

    General
    Unique ID                                : 253613783094644150920955437558022201532 (0xBECC3CE823167186AC284A59901AE0BC)
    Complete name                            : I:\Morning.Star.2014.Blu.Ray.720p.CINEMANIA.mkv
    Format                                   : Matroska
    Format version                           : Version 4 / Version 2
    File size                                : 4.02 GiB
    Duration                                 : 1h 30mn
    Overall bit rate                         : 6 352 Kbps
    Movie name                               : Release Group CINEMANIA
    Encoded date                             : UTC 2014-11-28 09:09:31
    Writing application                      : mkvmerge v7.3.0 ('Nouages') 64bit built on Oct 22 2014 18:53:34
    Writing library                          : libebml v1.3.0 + libmatroska v1.4.1

    Video
    ID                                       : 1
    Format                                   : AVC
    Format/Info                              : Advanced Video Codec
    Format profile                           : Main@L4.0
    Format settings, CABAC                   : Yes
    Format settings, ReFrames                : 11 frames
    Codec ID                                 : V_MPEG4/ISO/AVC
    Duration                                 : 1h 30mn
    Bit rate                                 : 5 400 Kbps
    Width                                    : 1 280 pixels
    Height                                   : 544 pixels
    Display aspect ratio                     : 2.35:1
    Frame rate mode                          : Variable
    Frame rate                               : 24.000 fps
    Color space                              : YUV
    Chroma subsampling                       : 4:2:0
    Bit depth                                : 8 bits
    Scan type                                : Progressive
    Bits/(Pixel*Frame)                       : 0.323
    Stream size                              : 3.34 GiB (83%)
    Title                                    : Release Group CINEMANIA
    Writing library                          : x264 core 130 r2273 b3065e6
    Encoding settings                        : cabac=1 / ref=12 / deblock=1:-3:-3 / analyse=0x1:0x111 / me=umh / subme=10 / psy=1 / psy_rd=1.00:0.00 / mixed_ref=1 / me_range=48 / chroma_me=1 / trellis=2 / 8x8dct=0 / cqm=0 / deadzone=21,11 / fast_pskip=1 / chroma_qp_offset=-2 / threads=6 / lookahead_threads=1 / sliced_threads=0 / nr=0 / decimate=1 / interlaced=0 / bluray_compat=0 / constrained_intra=0 / bframes=9 / b_pyramid=1 / b_adapt=2 / b_bias=0 / direct=2 / weightb=1 / open_gop=0 / weightp=2 / keyint=240 / keyint_min=24 / scenecut=40 / intra_refresh=0 / rc_lookahead=40 / rc=2pass / mbtree=1 / bitrate=5400 / ratetol=1.0 / qcomp=0.60 / qpmin=0 / qpmax=69 / qpstep=4 / cplxblur=20.0 / qblur=0.5 / ip_ratio=1.40 / aq=1:1.00
    Language                                 : English
    Default                                  : Yes
    Forced                                   : No
    Color primaries                          : BT.709-5, BT.1361, IEC 61966-2-4, SMPTE RP177
    Transfer characteristics                 : BT.709-5, BT.1361
    Matrix coefficients                      : BT.709-5, BT.1361, IEC 61966-2-4 709, SMPTE RP177

    Audio #1
    ID                                       : 2
    Format                                   : AC-3
    Format/Info                              : Audio Coding 3
    Mode extension                           : CM (complete main)
    Codec ID                                 : A_AC3
    Duration                                 : 1h 30mn
    Bit rate mode                            : Constant
    Bit rate                                 : 192 Kbps
    Channel(s)                               : 2 channels
    Channel positions                        : Front: L R
    Sampling rate                            : 48.0 KHz
    Bit depth                                : 16 bits
    Compression mode                         : Lossy
    Stream size                              : 125 MiB (3%)
    Title                                    : ХиХиДок
    Language                                 : Russian
    Default                                  : Yes
    Forced                                   : Yes

    Audio #2
    ID                                       : 3
    Format                                   : DTS
    Format/Info                              : Digital Theater Systems
    Codec ID                                 : A_DTS
    Duration                                 : 1h 30mn
    Bit rate mode                            : Constant
    Bit rate                                 : 755 Kbps
    Channel(s)                               : 6 channels
    Channel positions                        : Front: L C R, Side: L R, LFE
    Sampling rate                            : 48.0 KHz
    Bit depth                                : 16 bits
    Compression mode                         : Lossy
    Stream size                              : 489 MiB (12%)
    Language                                 : English
    Default                                  : No
    Forced                                   : No

    Text
    ID                                       : 4
    Format                                   : UTF-8
    Codec ID                                 : S_TEXT/UTF8
    Codec ID/Info                            : UTF-8 Plain Text
    Language                                 : Russian
    Default                                  : Yes
    Forced                                   : Yes

    Menu
    00:00:00.000                             : en:Chapter 1
    00:12:24.250                             : en:Chapter 2
    00:22:45.666                             : en:Chapter 3
    00:29:11.083                             : en:Chapter 4
    00:35:41.708                             : en:Chapter 5
    00:48:38.791                             : en:Chapter 6
    00:55:21.291                             : en:Chapter 7
    01:00:31.416                             : en:Chapter 8
    01:05:42.250                             : en:Chapter 9
    01:12:22.583                             : en:Chapter 10
    01:20:02.250                             : en:Chapter 11
    01:27:22.625                             : en:Chapter 12


    Скриншоты:



    pb.wtf



  • Скачать Утренняя звезда через торрент http://i64.fastpic.ru/big/2014/1129/e9/f2ad7b7db29ae10213590b7f606fc9e9.jpg Скачать фильм Утренняя звезда через торрент бесплантно в хорошем качестве Описание: После смертельной битвы воин несёт на себе тело убитого друга, чтобы похоронить дома, как они друг другу обещали. По дороге ему ... 9 10 7
    Info! Серебряная раздача, засчитывается только 50% скачанного.
    Торрент: Зарегистрирован [2014-11-29 04:12] · скачан: 103 раз
    Статус: T временная
    Размер: 4.02 GB
    Как cкачать? Как скачать Утренняя звезда через торрент | qTorrent


    >> Регистрируемся здесь <<






    Отзывы и комментарии о схеме читаем и пишем здесь: ---> Отзывы и комментарии о схеме

    Новые благодарочки в телеграм довольных пользователей:
    скриншот   скриншот   скриншот   скриншот   скриншот

    29-11-2014 05:06 Утренняя звезда Скачать торрент  

    Описание неплохое, подождём чистого звукаpb.wtf



    29-11-2014 05:59 Утренняя звезда Скачать торрент  

    неплохой.....смотрел ужо)pb.wtf



    29-11-2014 06:13 Утренняя звезда Скачать торрент  

    ФёдорOFF писал(а):

    неплохой.....смотрел ужо)

    ))
    pb.wtf



    29-11-2014 10:39 Утренняя звезда Скачать торрент  

    Пытался посмотреть этот фильм онлайн, описание - класс, фильм ужас!pb.wtf



      Дорогой пользователь! Огромная просьба, поблагодарите релизера, оцените раздачу и оставьте свои комментарий, если Вы скачали Утренняя звезда через торрент бесплатно! Внесите свою лепту в развитие PiratBit!
      Комментировать посты могут только пользователи прошедшие не сложную регистрацию
      Показать сообщения:    

      Утренняя звезда через торрент
      Скачать бесплатно Утренняя звезда
      Утренняя звезда скачать торрент
      Утренняя звезда смотреть онлайн
      Cкачать фильм Утренняя звезда бесплатно
      Утренняя звезда скачать торрент в хорошем качестве
      Утренняя звезда смотреть онлайн бесплатно в хорошем качестве


      Вы не можете начинать темы
      Вы не можете отвечать на сообщения
      Вы не можете редактировать свои сообщения
      Вы не можете удалять свои сообщения
      Вы не можете голосовать в опросах
      Вы не можете прикреплять файлы к сообщениям
      Вы можете скачивать файлы