Всегда рабочее зеркало без VPN и Proxy просто перед .vidak.icu напиши любое слово или цифру, Пример http://zcxs.vidak.icu

MVO

MVO

1 сезон

1

1 сезон

iTunes

1 сезон

13

1 сезон

Deluxe

pack

Рекомендуем

Repack

30

ВАЖНО

RePack

MK11

RePack

jed

RePack

fifa19

RePack

RDR2

RePack

NEED FOR SPEED™ PAYBACK

Кинопоиск HD

6 сезон

 Острые козырьки 6 сезон

Все сериалы

все сериалы на PB.wtf

RePack

FAR CRY 5
  
Magnet ссылка

Витце / W. - Witse de film (Фрэнк Ван Мешлен / Frank van Mechelen) [2014, Бельгия, детектив, триллер, DVDRip) VO [Антон Агапов aka datynet] pb.wtf

Витце через торрент pb.wtf

Размер: 1.46 GB | Добавлен: 7 лет 8 мес. назад | Торрент скачан:125 раз
Смотреть онлайн Витце | Скачать    Ребята, помогите собрать деньги на оплату серверов!!!

29-11-2014 04:52 Витце Скачать торрент  

Витце / W. - Witse de film


  • Год выпуска: 2014
  • Страна: Бельгия
  • Жанр: детектив, триллер
  • Продолжительность: 01:38:06
  • Перевод: Любительское (одноголосое) [Антон Агапов aka datynet] - по переводу [Janetta]
  • Режиссер: Фрэнк Ван Мешлен / Frank van Mechelen
  • В ролях:
    Юбер Дамен, Хильде ван Хасендонк, Матис Шеперс, Вим Опбраук, Кателейне Вербеке, Робби Клейрен

  • Описание:

    К комиссару полиции на пенсии Витце приходит сестра, с которой они не виделись 30 лет, и сообщает, что ее дочь убили. Вникая в обстоятельства загадочного дела, Витце распутывает целый клубок преступлений серийного убийцы, действующего по принципу "Путь к сердцу женщины лежит через боль".
  • Качество: DVDRip
  • Формат: :AVI
  • Видео кодек: XviD
  • Аудио кодек: AC3
  • Видео: 1680 Кбит/сек, 720*304 (2,35:1), в 25,000 кадров/сек, MPEG-4 Visual (XviD)
  • Аудио №1: 448 Кбит/сек, 48,0 КГц, 16 бит, 6 каналов, AC-3
  • Релиз от: GEKADOL

    Код:

    Общее
    Полное имя                               : I:\Witse.De.Film.2014.DVDRip.CINEMANIA.avi
    Формат                                   : AVI
    Формат/Информация                        : Audio Video Interleave
    Размер файла                             : 1,46 Гбайт
    Продолжительность                        : 1 ч. 38 м.
    Общий поток                              : 2137 Кбит/сек
    Программа кодирования                    : VirtualDubMod 1.5.10.3 | www.virtualdub-fr.org || (build 2550/release)
    Библиотека кодирования                   : VirtualDubMod build 2550/release

    Видео
    Идентификатор                            : 0
    Формат                                   : MPEG-4 Visual
    Профиль формата                          : Advanced [email protected]
    Параметр BVOP формата                    : 2
    Параметр QPel формата                    : Нет
    Параметр GMC формата                     : Без точки перехода
    Параметр матрицы формата                 : Default (MPEG)
    Идентификатор кодека                     : XVID
    Идентификатор кодека/Подсказка           : XviD
    Продолжительность                        : 1 ч. 38 м.
    Битрейт                                  : 1680 Кбит/сек
    Ширина                                   : 720 пикселей
    Высота                                   : 304 пикселя
    Соотношение сторон                       : 2,35:1
    Частота кадров                           : 25,000 кадров/сек
    Цветовое пространство                    : YUV
    Субдискретизация насыщенности            : 4:2:0
    Битовая глубина                          : 8 бит
    Тип развёртки                            : Прогрессивная
    Метод сжатия                             : С потерями
    Бит/(Пиксели*Кадры)                      : 0.307
    Размер потока                            : 1,15 Гбайт (79%)
    Библиотека кодирования                   : XviD 1.2.1 (UTC 2008-12-04)

    Аудио
    Идентификатор                            : 1
    Формат                                   : AC-3
    Формат/Информация                        : Audio Coding 3
    Расширение режима                        : CM (complete main)
    Параметр Endianness формата              : Big
    Идентификатор кодека                     : 2000
    Продолжительность                        : 1 ч. 38 м.
    Вид битрейта                             : Постоянный
    Битрейт                                  : 448 Кбит/сек
    Каналы                                   : 6 каналов
    Расположение каналов                     : Front: L C R, Side: L R, LFE
    Частота                                  : 48,0 КГц
    Битовая глубина                          : 16 бит
    Метод сжатия                             : С потерями
    Размер потока                            : 314 Мбайт (21%)
    Выравнивание                             : Разделение по промежуткам
    Продолжительность промежутка             : 40  мс. (1,00 видеокадр)
    Время предзагрузки промежутка            : 500  мс.




    Скриншоты:
    скриншот   скриншот   скриншот   скриншот   скриншот  
    скриншот  


    pb.wtf



  • Скачать Витце через торрент https://pic1.kartinco.top/images/81/2c9kt.jpg Скачать, смотреть онлайн Витце бесплантно в хорошем качестве Описание: К комиссару полиции на пенсии Витце приходит сестра, с которой они не виделись 30 лет, и сообщает, что ее дочь убили. Вникая в ... 8.3 10 3
    Торрент: Зарегистрирован [2014-11-29 04:52] · скачан: 125 раз
    Статус: T временная
    Размер: 1.46 GB
    Как cкачать? Как скачать Витце через торрент | UTorrent

    28-11-2019 20:33  

    Отключить вcю реклaмy на сайте

      Дорогой пользователь! Огромная просьба, поблагодарите релизера, оцените раздачу и оставьте свои комментарий, если Вы скачали Витце через торрент бесплатно!
      Комментировать посты могут только пользователи прошедшие не сложную регистрацию
      Показать сообщения:    

      Витце через торрент
      Скачать бесплатно Витце
      Витце скачать торрент
      Витце смотреть онлайн
      Cкачать фильм Витце бесплатно
      Витце скачать торрент в хорошем качестве
      Витце смотреть онлайн бесплатно в хорошем качестве


      Вы не можете начинать темы
      Вы не можете отвечать на сообщения
      Вы не можете редактировать свои сообщения
      Вы не можете удалять свои сообщения
      Вы не можете голосовать в опросах
      Вы не можете прикреплять файлы к сообщениям
      Вы можете скачивать файлы