Ссылка на приватное зеркало нашего сайта всего за 1$. Внимание количество ограничено!!!

2 сезон

iTunes

1 сезон

1

iTunes

iTunes

iTunes

1 сезон

RePack

30

ИГРА 18+

pack

ВАЖНО

!!Акция!!

Alien_RageХит недели

RePack

MK11
pack

Забери бонус

RePack

jed

!!Акция!!

Alien_Rage

RePack

fifa19

RePack

Assassins Creed: Odyssey

RePack

NEED FOR SPEED™ PAYBACK

4 сезон

9 сезон

Бесстыжие 9 сезон

Все сериалы

все сериалы на PB.wtf

RePack

FAR CRY 5
  

Лица / Faces (Джон Кассаветис) [1968, драма, BDRip 720p] MVO, VO pb.wtf

Лица через торрент pb.wtf

Размер: 8.67 GB | Добавлен: 5 лет 10 мес. назад | Торрент скачан:7 раз
Скачать  

29-11-2014 06:43 Лица Скачать торрент  

Лица / Faces

Год выпуска: 1968
Страна: США
Жанр: драма
Продолжительность: 02:09:53
Перевод: Профессиональный многоголосый, профессиональный одноголосый
Субтитры: английские

Режиссёр: Джон Кассаветис

В ролях: Джон Марли, Джина Роулэндс, Линн Карлин, Фред Дрэйпер, Сеймур Кэссел, Вэл Эйвери, Дороти Гулливер, Джоэнн Мур Джордан, Дарлин Конли

Описание: В этом фильме чётко отметилось начало фирменного стиля режиссёра Кассаветиса. Снятый в его собственном доме фильм воспроизводит живые сцены из жизни людей, которые безнадёжно стремятся к чему-то и резко отлетают в сторону. Героям приходится нести тяжкое бремя рутины. Кассаветис исследует кризис супружеской жизни на примере Ричарда и Марии; нечаянный секс, гедонистическую несдержанность, семейные связи - и всё это внутри рассказа, который постоянно меняет своё направление, подобно путешествию персонажа сквозь долгую ночь и последующее утро...



Качество: BDRip 720p Сравнение с исходником
Формат: MKV
Видео кодек: H.264
Аудио кодек: AC3
Видео: 1196x720, 8788 kbps, 23.976 кадра/с, 0.426 bpp
Аудио 1: русский, AC3, 192 kbps, 2 ch, 48 kHz [профессиональный многоголосый]
Аудио 2: русский, AC3, 192 kbps, 1 ch, 48 kHz [профессиональный одноголосый]
Аудио 3: английский, AC3, 192 kbps, 2 ch, 48 kHz [оригинал]

Автор рипа msltel
Оскар, 1969 год
Номинации (3):
Лучшая мужская роль второго плана (Сеймур Кэссел)
Лучшая женская роль второго плана (Линн Карлин)
Лучший оригинальный сценарий

Венецианский кинофестиваль, 1968 год
Победитель (1):
Кубок Вольпи за лучшую мужскую роль (Джон Марли)

Номинации (1):
Золотой лев
Общее
Уникальный идентификатор : 174231553550968306341836557633605230922 (0x8313C6D0D6239B979960B7DBD4A2614A)
Полное имя : D:\Video\Lica.1968.BDRip.720p.mkv
Формат : Matroska
Версия формата : Version 4 / Version 2
Размер файла : 8,67 Гбайт
Продолжительность : 2 ч. 9 м.
Общий поток : 9554 Кбит/сек
Дата кодирования : UTC 2014-11-29 03:27:07
Программа кодирования : mkvmerge v7.3.0 ('Nouages') 64bit built on Oct 22 2014 18:53:34
Библиотека кодирования : libebml v1.3.0 + libmatroska v1.4.1
DURATION : 02:08:12.474000000
NUMBER_OF_FRAMES : 1566
NUMBER_OF_BYTES : 61353
_STATISTICS_WRITING_APP : mkvmerge v7.3.0 ('Nouages') 64bit built on Oct 22 2014 18:53:34
_STATISTICS_WRITING_DATE_UTC : 2014-11-29 03:27:07
_STATISTICS_TAGS : BPS DURATION NUMBER_OF_FRAMES NUMBER_OF_BYTES

Видео
Идентификатор : 1
Формат : AVC
Формат/Информация : Advanced Video Codec
Профиль формата : High@L4.1
Параметр CABAC формата : Да
Параметр ReFrames формата : 9 кадров
Идентификатор кодека : V_MPEG4/ISO/AVC
Продолжительность : 2 ч. 9 м.
Битрейт : 8788 Кбит/сек
Ширина : 1196 пикселей
Высота : 720 пикселей
Соотношение сторон : 1,661
Режим частоты кадров : Постоянный
Частота кадров : 23,976 кадра/сек
Цветовое пространство : YUV
Субдискретизация насыщенности : 4:2:0
Битовая глубина : 8 бит
Тип развёртки : Прогрессивная
Бит/(Пиксели*Кадры) : 0.426
Размер потока : 7,97 Гбайт (92%)
Заголовок : BDRip -- STarankov
Библиотека кодирования : x264 core 142 r2431 ac76440
Настройки программы : cabac=1 / ref=9 / deblock=1:-1:-1 / analyse=0x3:0x113 / me=umh / subme=10 / psy=1 / psy_rd=1.00:0.15 / mixed_ref=1 / me_range=32 / chroma_me=1 / trellis=2 / 8x8dct=1 / cqm=0 / deadzone=21,11 / fast_pskip=1 / chroma_qp_offset=-3 / threads=6 / lookahead_threads=1 / sliced_threads=0 / nr=0 / decimate=1 / interlaced=0 / bluray_compat=0 / constrained_intra=0 / bframes=8 / b_pyramid=2 / b_adapt=2 / b_bias=0 / direct=3 / weightb=1 / open_gop=0 / weightp=2 / keyint=230 / keyint_min=23 / scenecut=40 / intra_refresh=0 / rc_lookahead=40 / rc=crf / mbtree=0 / crf=21.0 / qcomp=0.60 / qpmin=0 / qpmax=69 / qpstep=4 / vbv_maxrate=50000 / vbv_bufsize=62500 / crf_max=0.0 / nal_hrd=none / filler=0 / ip_ratio=1.40 / pb_ratio=1.30 / aq=1:1.00
Язык : English
Default : Да
Forced : Нет
DURATION : 02:09:53.828000000
NUMBER_OF_FRAMES : 186865
NUMBER_OF_BYTES : 8744591567
_STATISTICS_WRITING_APP : mkvmerge v7.3.0 ('Nouages') 64bit built on Oct 22 2014 18:53:34
_STATISTICS_WRITING_DATE_UTC : 2014-11-29 03:27:07
_STATISTICS_TAGS : BPS DURATION NUMBER_OF_FRAMES NUMBER_OF_BYTES

Аудио #1
Идентификатор : 2
Формат : AC-3
Формат/Информация : Audio Coding 3
Расширение режима : CM (complete main)
Параметр Endianness формата : Big
Идентификатор кодека : A_AC3
Продолжительность : 2 ч. 9 м.
Вид битрейта : Постоянный
Битрейт : 192 Кбит/сек
Каналы : 2 канала
Расположение каналов : Front: L R
Частота : 48,0 КГц
Битовая глубина : 16 бит
Метод сжатия : С потерями
Размер потока : 178 Мбайт (2%)
Заголовок : MVO
Язык : Russian
Default : Да
Forced : Нет

Аудио #2
Идентификатор : 3
Формат : AC-3
Формат/Информация : Audio Coding 3
Расширение режима : CM (complete main)
Параметр Endianness формата : Big
Идентификатор кодека : A_AC3
Продолжительность : 2 ч. 9 м.
Вид битрейта : Постоянный
Битрейт : 192 Кбит/сек
Каналы : 1 канал
Расположение каналов : Front: C
Частота : 48,0 КГц
Битовая глубина : 16 бит
Метод сжатия : С потерями
Размер потока : 178 Мбайт (2%)
Заголовок : VO (одноголосый закадровый)
Язык : Russian
Default : Нет
Forced : Нет

Аудио #3
Идентификатор : 4
Формат : AC-3
Формат/Информация : Audio Coding 3
Расширение режима : CM (complete main)
Параметр Endianness формата : Big
Идентификатор кодека : A_AC3
Продолжительность : 2 ч. 9 м.
Вид битрейта : Постоянный
Битрейт : 192 Кбит/сек
Каналы : 2 канала
Расположение каналов : Front: L R
Частота : 48,0 КГц
Битовая глубина : 16 бит
Метод сжатия : С потерями
Размер потока : 178 Мбайт (2%)
Заголовок : Original
Язык : English
Default : Нет
Forced : Нет

Текст
Идентификатор : 5
Формат : UTF-8
Идентификатор кодека : S_TEXT/UTF8
Идентификатор кодека/Информация : UTF-8 Plain Text
Заголовок : английский
Язык : English
Default : Нет
Forced : Нет
pb.wtf



Скачать Лица через торрент http://i64.fastpic.ru/big/2014/1129/32/e069c00f81285b17edf802996ea35d32.jpg Скачать фильм Лица через торрент бесплантно в хорошем качестве Описание: В этом фильме чётко отметилось начало фирменного стиля режиссёра Кассаветиса. Снятый в его собственном доме фильм воспроизводит ... 10 10 2
Торрент: Зарегистрирован [2014-11-29 06:43] · скачан: 7 раз
Статус: √ проверено
Размер: 8.67 GB
Как cкачать? Как скачать Лица через торрент | qTorrent

% Раздел Тема Автор DL S | L
Фильмы [HD 720p, 1080p] (Хороший звук DUB, MVO) [ 4.64 GB ] Лица в толпе / Faces in the Crowd [2011 BDRip 720p MVO лицензия] Ke$h@ Скачать
1 | 0

28-11-2019 20:33  

Отключить всю рекламу на сайте

    Дорогой пользователь! Огромная просьба, поблагодарите релизера, оцените раздачу и оставьте свои комментарий, если Вы скачали Лица через торрент бесплатно! Внесите свою лепту в развитие PiratBit!
    Комментировать посты могут только пользователи прошедшие не сложную регистрацию
    Показать сообщения:    

    Лица через торрент
    Скачать бесплатно Лица
    Лица скачать торрент
    Лица смотреть онлайн
    Cкачать фильм Лица бесплатно
    Лица скачать торрент в хорошем качестве
    Лица смотреть онлайн бесплатно в хорошем качестве


    Вы не можете начинать темы
    Вы не можете отвечать на сообщения
    Вы не можете редактировать свои сообщения
    Вы не можете удалять свои сообщения
    Вы не можете голосовать в опросах
    Вы не можете прикреплять файлы к сообщениям
    Вы можете скачивать файлы