Ссылка на приватное зеркало нашего сайта всего за 1$. Внимание количество ограничено!!!

2 сезон

iTunes

1 сезон

1

2 сезон

2 сезон

iTunes

1 сезон

RePack

30

Ultimate

ВАЖНО

ИГРА 18+

pack

RePack

MK11
pack

Забери бонус

RePack

jed

!!Акция!!

Alien_Rage

RePack

fifa19

RePack

Assassins Creed: Odyssey

RePack

NEED FOR SPEED™ PAYBACK

4 сезон

9 сезон

Бесстыжие 9 сезон

Все сериалы

все сериалы на PB.wtf

RePack

FAR CRY 5
  

Проклятая палата / Демоническая палата / Akuryo Byoto / Demon / Сезон: 1 / Серии 1-10 из 10 (Норио Цурута / Tsuruta Norio) (2013, Япония, ужасы, мистика, HDTV 720p] DVO [den904, DeadSno] pb.wtf

Проклятая палата через торрент pb.wtf

Размер: 5.75 GB | Добавлен: 5 лет 11 мес. назад | Торрент скачан:57 раз
Скачать  

29-11-2014 12:03 Проклятая палата Скачать торрент  

Проклятая палата / Демоническая палата / Akuryo Byoto / Demon Ward


  • Год выпуска: 2013
  • Страна: Япония
  • Жанр: ужасы, мистика
  • Продолжительность: 00:23:59 (Серия)
  • Перевод: Любительский (двухголосый)[den904, DeadSno]

  • Режиссер: Норио Цурута, Хаджиме Такезоно, Ейске Найто
  • В ролях: Кахо, Эрико Мориваки, Джуриа Каваками, Аки Кикуи, Ами Шимазаки, Сейко Ногучи, Мао Инами, Джуничи Харута, Кенске Овада, Чоей Такахаши, Лиззи, Казума Сузуки, Рихо Такада, Кюсаку Шимада

  • Описание:
    Потеряв мать, Руна начинает видеть призраков. Сделав ошибку и рассказав об этом, девушка переезжает в другой город и отныне хранит молчание. Возможно, ее ждала бы новая жизнь, вот только нынешнее место работы одержимо призраками. И когда в больнице Кумагава начинают происходить странные вещи, подозрение падает на новую медсестру. Теперь жизнь Руны в опасности. Сможет ли она спастись от странных жутких существ?
  • Рейтинг:



  • Качество: HDTV 720p
  • Формат: :MKV
  • Видео кодек: AVC
  • Аудио кодек: AC3
  • Видео: 1280x720 (16:9), 3855 kbps, 29,970 fps, 0,140 bpp
  • Аудио: 2.0 / 48 kHz / 192 kbps / 16 bit
  • Релиз от: GEKADOL

    Код:

    General
    Unique ID                                : 230350121230856761188709971422051669192 (0xAD4BD1D26E5C47ECABC6556FEB2194C8)
    Complete name                            : I:\Demon.Ward.2013.HDTV.720p.CINEMANIA\10.mkv
    Format                                   : Matroska
    Format version                           : Version 4 / Version 2
    File size                                : 695 MiB
    Duration                                 : 23mn 59s
    Overall bit rate                         : 4 049 Kbps
    Encoded date                             : UTC 2014-05-04 15:35:23
    Writing application                      : mkvmerge v6.2.0 ('Promised Land') built on Apr 28 2013 12:22:01
    Writing library                          : libebml v1.3.0 + libmatroska v1.4.0

    Video
    ID                                       : 1
    Format                                   : AVC
    Format/Info                              : Advanced Video Codec
    Format profile                           : High@L4.1
    Format settings, CABAC                   : Yes
    Format settings, ReFrames                : 9 frames
    Codec ID                                 : V_MPEG4/ISO/AVC
    Duration                                 : 23mn 59s
    Bit rate                                 : 3 855 Kbps
    Width                                    : 1 280 pixels
    Height                                   : 720 pixels
    Display aspect ratio                     : 16:9
    Frame rate                               : 29.970 fps
    Color space                              : YUV
    Chroma subsampling                       : 4:2:0
    Bit depth                                : 8 bits
    Scan type                                : Progressive
    Bits/(Pixel*Frame)                       : 0.140
    Stream size                              : 648 MiB (93%)
    Writing library                          : x264 core 133 r2334 a3ac64b
    Encoding settings                        : cabac=1 / ref=9 / deblock=1:-3:-3 / analyse=0x3:0x133 / me=tesa / subme=11 / psy=1 / psy_rd=1.00:0.15 / mixed_ref=1 / me_range=48 / chroma_me=1 / trellis=2 / 8x8dct=1 / cqm=0 / deadzone=21,11 / fast_pskip=0 / chroma_qp_offset=-3 / threads=12 / lookahead_threads=2 / sliced_threads=0 / nr=0 / decimate=1 / interlaced=0 / bluray_compat=0 / constrained_intra=0 / bframes=8 / b_pyramid=2 / b_adapt=2 / b_bias=0 / direct=3 / weightb=1 / open_gop=0 / weightp=2 / keyint=300 / keyint_min=29 / scenecut=40 / intra_refresh=0 / rc_lookahead=40 / rc=2pass / mbtree=1 / bitrate=3855 / ratetol=1.0 / qcomp=0.60 / qpmin=0 / qpmax=69 / qpstep=4 / cplxblur=20.0 / qblur=0.5 / ip_ratio=1.40 / aq=1:1.00
    Default                                  : Yes
    Forced                                   : No

    Audio
    ID                                       : 2
    Format                                   : AC-3
    Format/Info                              : Audio Coding 3
    Mode extension                           : CM (complete main)
    Codec ID                                 : A_AC3
    Duration                                 : 23mn 59s
    Bit rate mode                            : Constant
    Bit rate                                 : 192 Kbps
    Channel(s)                               : 2 channels
    Channel positions                        : Front: L R
    Sampling rate                            : 48.0 KHz
    Bit depth                                : 16 bits
    Compression mode                         : Lossy
    Stream size                              : 33.0 MiB (5%)
    Default                                  : Yes
    Forced                                   : No


    Скриншоты:



    pb.wtf



  • Скачать Проклятая палата через торрент http://i63.fastpic.ru/big/2014/1129/21/f969054deb8e7a5d3a1e12831d044321.jpg Скачать фильм Проклятая палата через торрент бесплантно в хорошем качестве Описание: Потеряв мать, Руна начинает видеть призраков. Сделав ошибку и рассказав об этом, девушка переезжает в другой город и отныне ... 6.3 10 3
    Info! Золотая раздача, скачанное не засчитывается.
    Торрент: Зарегистрирован [2014-11-29 12:03] · скачан: 57 раз
    Статус: √ проверено
    Размер: 5.75 GB
    Как cкачать? Как скачать Проклятая палата через торрент | qTorrent

    28-11-2019 20:33  

    Отключить всю рекламу на сайте

    29-11-2014 12:44 Проклятая палата Скачать торрент  

    А аниме такое есть?pb.wtf



    29-11-2014 12:51 Проклятая палата Скачать торрент  

    Po3T писал(а):

    А аниме такое есть?

    Вроде нет)
    pb.wtf



      Дорогой пользователь! Огромная просьба, поблагодарите релизера, оцените раздачу и оставьте свои комментарий, если Вы скачали Проклятая палата через торрент бесплатно! Внесите свою лепту в развитие PiratBit!
      Комментировать посты могут только пользователи прошедшие не сложную регистрацию
      Показать сообщения:    

      Проклятая палата через торрент
      Скачать бесплатно Проклятая палата
      Проклятая палата скачать торрент
      Проклятая палата смотреть онлайн
      Cкачать фильм Проклятая палата бесплатно
      Проклятая палата скачать торрент в хорошем качестве
      Проклятая палата смотреть онлайн бесплатно в хорошем качестве


      Вы не можете начинать темы
      Вы не можете отвечать на сообщения
      Вы не можете редактировать свои сообщения
      Вы не можете удалять свои сообщения
      Вы не можете голосовать в опросах
      Вы не можете прикреплять файлы к сообщениям
      Вы можете скачивать файлы