новый адрес пиратбит piratbit
Мега распродажа FORZA HORIZON 4 ULTIMATE+ВСЕ DLC+ОНЛАЙН всего за 499р. 349 руб. (супер цена). Внимание количество ограничено!!!

iTunes

1+1

iTunes

мы

iTunes

1

iTunes

Чернобыль

iTunes

Ральф против интернета

Лицензия

ПШазам

Лицензия

Игра престолов

Лицензия

30
pack

ВАЖНО

!!Акция!!

Alien_RageХит недели

RePack

Resident Evil 21

ИГРА 18+

pack

RePack

Metro:Exodus

!!Акция!!

Alien_Rage

RePack

fifa19

RePack

Assassins Creed: Odyssey

RePack

NEED FOR SPEED™ PAYBACK

3 сезон

9 сезон

Бесстыжие 9 сезон

Все сериалы

все сериалы на PB.wtf

RePack

FAR CRY 5
Ребята, катастрофически не хватает 1900р. для оплаты серверов за Октябрь (всвязи с блокировками трафик упал в 3 раза), 1-2р., выручайте.
  

У твоего порога (Василий Ордынский) [ г. 1962, Военный, Драма, DVDRip] pb.wtf

У твоего порога через торрент pb.wtf

Размер: 1.09 GB | Добавлен: 4 года 11 мес. назад | Торрент скачан:54 раза
Скачать  

29-11-2014 13:40 У твоего порога Скачать торрент  


У твоего порога
Страна: CCCP
Жанр: Военный, Драма
Режиссер: Василий Ордынский
Сценарий: Семен Нагорный
Композитор: Вениамин Баснер
Оператор: Игорь Слабневич
Длительность: 1 ч. 14 м
Премьера в мире: 13 марта 1964

В ролях:
..
Надежда Федосова (... мать), Петр Любешкин(... отец), Лилия Дзюба (... Лиса), Борис Юрченко (... Михаил Васильевич Прохоренко, старший сержант),Юрий Горобец (... Перекалин, ефрейтор), Николай Граббе (... Михаил Васильевич, шофёр), Роман Хомятов (... Игорь Берсенев), Виктор Филиппов (... Евсей Васюта), Валерий Погорельцев (... Леонид Черныше), Юрий Смирнов (... сибирский паренек), Станислав Соколов, Инна Выходцева (... медсестра)..
Описание: Суровая осень 1941 года. Немцы на подступе к Москве. Несколько зенитных батарей, охранявших небо столицы, были срочно брошены против немецких танков. На развилке дорог, возле домика, где живет женщина с тремя детьми, занял позицию орудийный расчет…
Качество: DVDRip
Формат: AVI
Видео кодек: DivX
Аудио кодек: AC3
Видео: 1909 Кбит/сек, 688*512 (3:4), в 25,000 кадров/cек, MPEG-4 Visual (DivX 5) (Сжатый битовый поток) (BVOP1)
Аудио#1: 192 Кбит/сек, 48,0 КГц, 16 бит, 2 канала, AC-3
Релиз от:
Особая благодарность intellect
Снимавшийся в фильме танк PzKpfw38(t) чехословацкого производства можно увидеть в экспозиции Военно-исторического музея бронетанкового вооружения и техники в Кубинке: в 2003 году машина была восстановлена и в настоящее время является единственным в России (и одним из двух в мире) находящимся на ходу танком этой модели.

скриншот   скриншот   скриншот   скриншот   скриншот   скриншот   скриншот   скриншот  

Полное имя : C:\TORRENTS\У твоего порога\У твоего порога.avi
Формат : AVI
Формат/Информация : Audio Video Interleave
Размер файла : 1,09 Гбайт
Продолжительность : 1 ч. 14 м.
Общий поток : 2111 Кбит/сек
Программа кодирования : VirtualDubModRus 1.5.10.2 (build 2542/release)
Библиотека кодирования : VirtualDubMod build 2542/release

Видео
Идентификатор : 0
Формат : MPEG-4 Visual
Параметр BVOP формата : 1
Параметр QPel формата : Нет
Параметр GMC формата : Без точки перехода
Параметр матрицы формата : Default (H.263)
Режим смешивания : Сжатый битовый поток
Идентификатор кодека : DX50
Идентификатор кодека/Подсказка : DivX 5
Продолжительность : 1 ч. 14 м.
Битрейт : 1909 Кбит/сек
Ширина : 688 пикселей
Высота : 512 пикселей
Соотношение сторон : 4:3
Частота кадров : 25,000 кадров/сек
Цветовое пространство : YUV
Субдискретизация насыщенности : 4:2:0
Битовая глубина : 8 бит
Тип развёртки : Прогрессивная
Метод сжатия : С потерями
Бит/(Пиксели*Кадры) : 0.217
Размер потока : 1013 Мбайт (90%)
Библиотека кодирования : DivX 6.8.3-6.8.4 (UTC 2008-06-07)

Аудио
Идентификатор : 1
Формат : AC-3
Формат/Информация : Audio Coding 3
Расширение режима : CM (complete main)
Параметр Endianness формата : Big
Идентификатор кодека : 2000
Продолжительность : 1 ч. 14 м.
Вид битрейта : Постоянный
Битрейт : 192 Кбит/сек
Каналы : 2 канала
Расположение каналов : Front: L R
Частота : 48,0 КГц
Битовая глубина : 16 бит
Метод сжатия : С потерями
Размер потока : 102 Мбайт (9%)
Выравнивание : Соединение по промежуткам
Продолжительность промежутка : 40 мс. (1,00 видеокадр)
Время предзагрузки промежутка : 512 мс.

pb.wtf



Скачать У твоего порога через торрент http://pic.kartinco.top/images/8/zijyk.jpg Скачать фильм У твоего порога через торрент бесплантно в хорошем качестве Описание: Суровая осень 1941 года. Немцы на подступе к Москве. Несколько зенитных батарей, охранявших небо столицы, были срочно брошены ... 10 10 4
Info! Золотая раздача, скачанное не засчитывается.
Торрент: Зарегистрирован [2014-11-29 13:56] · скачан: 54 раз
Статус: √ проверено
Размер: 1.09 GB
Как cкачать? Как скачать У твоего порога через торрент | qTorrent

% Раздел Тема Автор DL S | L
Фильмы 2006-2008 [ 1.36 GB ] У твоего порога / Right at Your Door [2006 ] POCIK Скачать
1 | 0


>> Регистрируемся здесь <<






Отзывы и комментарии о схеме читаем и пишем здесь: ---> Отзывы и комментарии о схеме

Новые благодарочки в телеграм довольных пользователей:
скриншот   скриншот   скриншот   скриншот   скриншот
    Дорогой пользователь! Огромная просьба, поблагодарите релизера, оцените раздачу и оставьте свои комментарий, если Вы скачали У твоего порога через торрент бесплатно! Внесите свою лепту в развитие PiratBit!
    Комментировать посты могут только пользователи прошедшие не сложную регистрацию
    Показать сообщения:    

    У твоего порога через торрент
    Скачать бесплатно У твоего порога
    У твоего порога скачать торрент
    У твоего порога смотреть онлайн
    Cкачать фильм У твоего порога бесплатно
    У твоего порога скачать торрент в хорошем качестве
    У твоего порога смотреть онлайн бесплатно в хорошем качестве


    Вы не можете начинать темы
    Вы не можете отвечать на сообщения
    Вы не можете редактировать свои сообщения
    Вы не можете удалять свои сообщения
    Вы не можете голосовать в опросах
    Вы не можете прикреплять файлы к сообщениям
    Вы можете скачивать файлы