2 сезон

iTunes

MVO

1

2 сезон

iTunes

iTunes

1 сезон

RePack

30

Новинка

ВАЖНО

ИГРА 18+

pack

RePack

MK11
pack

Легкие деньги

RePack

jed

RePack

fifa19

RePack

RDR2

RePack

NEED FOR SPEED™ PAYBACK

4 сезон

9 сезон

Бесстыжие 9 сезон

Все сериалы

все сериалы на PB.wtf

RePack

FAR CRY 5

Anonymous, доброе утро, мы не успеваем собрать деньги на оплату серверов за декабрь и январь, помогите нам пожалуйста в это трудное время. В качестве благодарности мы отключим Вам всю рекламу на сайте (укажите свой ник в строку Ваше имя)!

×
  
Magnet ссылка

Торжественный финал / Grand Piano (Эухенио Мира / Eugenio Mira) [2013, Испания, США, триллер, детектив, HDRip, MVO / лицензия pb.wtf

Торжественный финал через торрент pb.wtf

Размер: 1.46 GB | Добавлен: 6 лет 1 мес. назад | Торрент скачан:342 раза
Скачать  

29-11-2014 16:38 Торжественный финал Скачать торрент  

«Play or Die»Торжественный финал / Grand Piano

Страна: Испания, США / Antena 3 Televisión, Atresmedia TelevisiГіn, Grand Piano Productions, Nostromo Canarias 1 AIE, Nostromo Pictures, Solution, Entertainment Group, Telefónica Producciones, Televisió de Catalunya (TV3)

Жанр: триллер, детектив

Год выпуска: 2013

Продолжительность: 01:30:01

Перевод: Профессиональный (многоголосый закадровый) | лицензия

Cубтитры: нет

Оригинальная аудиодорожка: нет

Режиссер: Эухенио Мира / Eugenio Mira

В ролях: Элайджа Вуд, Джон Кьюсак, Керри Бише, Тэмзин Эджертон, Аллен Лич, Дон МакМанус, Алекс Уинтер, Ди Уоллес-Стоун, Джим Арнольд, Джек Тейлор...

Описание: История знаменитого пианиста, который на много лет оказывается отлученным от концертной деятельности из-за патологической боязни сцены. Когда же, наконец, ему удается преодолеть свой страх и выступить перед публикой, он вдруг узнает, что попал в смертельную ловушку. На выбор ему уготованы только два варианта — либо продолжать мастерски играть, либо погибнуть вместе с женой от рук загадочного безумца.



Качество: BDRip

Формат:AVI

Видео кодек: XviD

Аудио кодек:AC3

Видео: 720x304 (2.37:1), XViD, 1923 kbps / 24,000 fps / bit/pix=0.366

Аудио: Russian: 48 kHz, AC3, 3/2 (L,C,R,l,r) + LFE ch, 384.00 kbps constant

Раздача от:
General

Format : AVI

Format/Info : Audio Video Interleave

File size : 1.46 GiB

Duration : 1h 30mn

Overall bit rate : 2 316 Kbps

Writing application : VirtualDubModRus 1.5.10.2 (build 2542/release)

Writing library : VirtualDubMod build 2542/release

Video

ID : 0

Format : MPEG-4 Visual

Format profile : Advanced Simple@L5

Format settings, BVOP : 1

Format settings, QPel : No

Format settings, GMC : No warppoints

Format settings, Matrix : Custom

Codec ID : XVID

Codec ID/Hint : XviD

Duration : 1h 30mn

Bit rate : 1 923 Kbps

Width : 720 pixels

Height : 304 pixels

Display aspect ratio : 2.35:1

Frame rate : 24.000 fps

Color space : YUV

Chroma subsampling : 4:2:0

Bit depth : 8 bits

Scan type : Progressive

Compression mode : Lossy

Bits/(Pixel*Frame) : 0.366

Stream size : 1.21 GiB (83%)

Writing library : XviD 73

Audio

ID : 1

Format : AC-3

Format/Info : Audio Coding 3

Mode extension : CM (complete main)

Format settings, Endianness : Big

Codec ID : 2000

Duration : 1h 30mn

Bit rate mode : Constant

Bit rate : 384 Kbps

Channel(s) : 6 channels

Channel positions : Front: L C R, Side: L R, LFE

Sampling rate : 48.0 KHz

Bit depth : 16 bits

Compression mode : Lossy

Stream size : 247 MiB (17%)

Alignment : Split accross interleaves

Interleave, duration : 42 ms (1.00 video frame)

Interleave, preload duration : 500 ms
pb.wtf



Скачать Торжественный финал через торрент http://s018.radikal.ru/i514/1411/ab/95033af308a1.jpg Скачать фильм Торжественный финал через торрент бесплантно в хорошем качестве Описание: История знаменитого пианиста, который на много лет оказывается отлученным от концертной деятельности из-за патологической боязни ... 10 10 15
Торрент: Зарегистрирован [2014-11-29 16:38] · скачан: 342 раз
Статус: √ проверено
Размер: 1.46 GB
Как cкачать? Как скачать Торжественный финал через торрент | UTorrent

28-11-2019 20:33  

Отключить всю рекламу на сайте

29-11-2014 20:02 Торжественный финал Скачать торрент  

Не качал, не смотрел, но фильм взял на заметку. За релиз спасибо.pb.wtf



    Дорогой пользователь! Огромная просьба, поблагодарите релизера, оцените раздачу и оставьте свои комментарий, если Вы скачали Торжественный финал через торрент бесплатно! Внесите свою лепту в развитие PiratBit!
    Комментировать посты могут только пользователи прошедшие не сложную регистрацию
    Показать сообщения:    

    Торжественный финал через торрент
    Скачать бесплатно Торжественный финал
    Торжественный финал скачать торрент
    Торжественный финал смотреть онлайн
    Cкачать фильм Торжественный финал бесплатно
    Торжественный финал скачать торрент в хорошем качестве
    Торжественный финал смотреть онлайн бесплатно в хорошем качестве


    Вы не можете начинать темы
    Вы не можете отвечать на сообщения
    Вы не можете редактировать свои сообщения
    Вы не можете удалять свои сообщения
    Вы не можете голосовать в опросах
    Вы не можете прикреплять файлы к сообщениям
    Вы можете скачивать файлы