2 сезон

iTunes

1 сезон

1

iTunes

iTunes

iTunes

1 сезон

RePack

30

ИГРА 18+

pack

ВАЖНО

!!Акция!!

Alien_RageХит недели

RePack

MK11
pack

Забери бонус

RePack

jed

!!Акция!!

Alien_Rage

RePack

fifa19

RePack

Assassins Creed: Odyssey

RePack

NEED FOR SPEED™ PAYBACK

4 сезон

9 сезон

Бесстыжие 9 сезон

Все сериалы

все сериалы на PB.wtf

RePack

FAR CRY 5
  

Торжественный финал / Grand Piano (Эухенио Мира / Eugenio Mira) [2013, Испания, США, триллер, детектив, BDRip 1080p , DVO+MVO лицензия] pb.wtf

Торжественный финал через торрент pb.wtf

Размер: 7.03 GB | Добавлен: 5 лет 11 мес. назад | Торрент скачан:29 раз
Скачать  

29-11-2014 16:41 Торжественный финал Скачать торрент  

«Play or Die»Торжественный финал / Grand Piano

Страна: Испания, США / Antena 3 Televisión, Atresmedia TelevisiГіn, Grand Piano Productions, Nostromo Canarias 1 AIE, Nostromo Pictures, Solution, Entertainment Group, Telefónica Producciones, Televisió de Catalunya (TV3)

Жанр: триллер, детектив

Год выпуска: 2013

Продолжительность: 01:30:06

Перевод: Профессиональный (многоголосый закадровый)| лицензия

Cубтитры: английский

Оригинальная аудиодорожка: английский

Режиссер: Эухенио Мира / Eugenio Mira

В ролях: Элайджа Вуд, Джон Кьюсак, Керри Бише, Тэмзин Эджертон, Аллен Лич, Дон МакМанус, Алекс Уинтер, Ди Уоллес-Стоун, Джим Арнольд, Джек Тейлор...

Описание: История знаменитого пианиста, который на много лет оказывается отлученным от концертной деятельности из-за патологической боязни сцены. Когда же, наконец, ему удается преодолеть свой страх и выступить перед публикой, он вдруг узнает, что попал в смертельную ловушку. На выбор ему уготованы только два варианта — либо продолжать мастерски играть, либо погибнуть вместе с женой от рук загадочного безумца.



Качество: BDRip 1080p

Формат: MKV

Видео кодек: H.264

Аудио кодек: DTS,AC3

Видео: 1920x800 (2.41:1), MPEG-4 AVC, 8900 kbps / 23,976 fps / bit/pix=0.242

Аудио 1: Russian: 48 kHz, AC3, 3/2 (L,C,R,l,r) + LFE ch, 384.00 kbps constant | MVO

Аудио 2: Russian: 48 kHz, AC3, 3/2 (L,C,R,l,r) + LFE ch, 384.00 kbps constant | DVO - Vlad&Snejinka

Аудио 3: English: 48 kHz, DTS, 3/2 (L,C,R,l,r) + LFE ch, 1536.00 kbps constant

Формат субтитров: SoftSub (srt)

Дополнительно: Фильм разбит на главы, как на оригинальном Blu-ray диске.

Раздача от:
General

Format : Matroska

Format version : Version 4 / Version 2

File size : 7.03 GiB

Duration : 1h 30mn

Overall bit rate : 11.2 Mbps

Encoded date : UTC 2014-11-29 11:52:57

Writing application : mkvmerge v7.2.0 ('On Every Street') 64bit built on Sep 13 2014 15:52:10

Writing library : libebml v1.3.0 + libmatroska v1.4.1

DURATION : 01:30:06.464000000

NUMBER_OF_FRAMES : 168952

NUMBER_OF_BYTES : 259510272

_STATISTICS_WRITING_APP : mkvmerge v7.2.0 ('On Every Street') 64bit built on Sep 13 2014 15:52:10

_STATISTICS_WRITING_DATE_UTC : 2014-11-29 11:52:57

_STATISTICS_TAGS : BPS DURATION NUMBER_OF_FRAMES NUMBER_OF_BYTES

Video

ID : 1

Format : AVC

Format/Info : Advanced Video Codec

Format profile : High@L4.1

Format settings, CABAC : Yes

Format settings, ReFrames : 5 frames

Codec ID : V_MPEG4/ISO/AVC

Duration : 1h 30mn

Bit rate : 8 900 Kbps

Width : 1 920 pixels

Height : 800 pixels

Display aspect ratio : 2.40:1

Frame rate mode : Constant

Frame rate : 23.976 fps

Color space : YUV

Chroma subsampling : 4:2:0

Bit depth : 8 bits

Scan type : Progressive

Bits/(Pixel*Frame) : 0.242

Stream size : 5.46 GiB (78%)

Writing library : x264 core 142 r2409 d6b4e63

Encoding settings : cabac=1 / ref=5 / deblock=1:-3:-3 / analyse=0x3:0x133 / me=umh / subme=8 / psy=1 / psy_rd=1.00:0.15 / mixed_ref=1 / me_range=16 / chroma_me=1 / trellis=1 / 8x8dct=1 / cqm=0 / deadzone=21,11 / fast_pskip=0 / chroma_qp_offset=-4 / threads=12 / lookahead_threads=2 / sliced_threads=0 / nr=0 / decimate=1 / interlaced=0 / bluray_compat=0 / constrained_intra=0 / bframes=3 / b_pyramid=2 / b_adapt=2 / b_bias=0 / direct=3 / weightb=1 / open_gop=0 / weightp=2 / keyint=240 / keyint_min=23 / scenecut=40 / intra_refresh=0 / rc_lookahead=50 / rc=2pass / mbtree=1 / bitrate=8900 / ratetol=1.0 / qcomp=0.60 / qpmin=10 / qpmax=69 / qpstep=4 / cplxblur=20.0 / qblur=0.5 / ip_ratio=1.40 / aq=1:1.00

Language : English

Default : Yes

Forced : No

DURATION : 01:30:08.445000000

NUMBER_OF_FRAMES : 129673

NUMBER_OF_BYTES : 6012232298

_STATISTICS_WRITING_APP : mkvmerge v7.2.0 ('On Every Street') 64bit built on Sep 13 2014 15:52:10

_STATISTICS_WRITING_DATE_UTC : 2014-11-29 11:52:57

_STATISTICS_TAGS : BPS DURATION NUMBER_OF_FRAMES NUMBER_OF_BYTES

Audio #1

ID : 2

Format : AC-3

Format/Info : Audio Coding 3

Mode extension : CM (complete main)

Format settings, Endianness : Big

Codec ID : A_AC3

Duration : 1h 30mn

Bit rate mode : Constant

Bit rate : 384 Kbps

Channel(s) : 6 channels

Channel positions : Front: L C R, Side: L R, LFE

Sampling rate : 48.0 KHz

Bit depth : 16 bits

Compression mode : Lossy

Stream size : 248 MiB (3%)

Title : MVO

Language : Russian

Default : Yes

Forced : No

Audio #2

ID : 3

Format : AC-3

Format/Info : Audio Coding 3

Mode extension : CM (complete main)

Format settings, Endianness : Big

Codec ID : A_AC3

Duration : 1h 30mn

Bit rate mode : Constant

Bit rate : 384 Kbps

Channel(s) : 6 channels

Channel positions : Front: L C R, Side: L R, LFE

Sampling rate : 48.0 KHz

Bit depth : 16 bits

Compression mode : Lossy

Stream size : 248 MiB (3%)

Title : Vlad&Snejinka

Language : Russian

Default : No

Forced : No

Audio #3

ID : 4

Format : DTS

Format/Info : Digital Theater Systems

Mode : 16

Format settings, Endianness : Big

Codec ID : A_DTS

Duration : 1h 30mn

Bit rate mode : Constant

Bit rate : 1 509 Kbps

Channel(s) : 6 channels

Channel positions : Front: L C R, Side: L R, LFE

Sampling rate : 48.0 KHz

Bit depth : 24 bits

Compression mode : Lossy

Stream size : 973 MiB (14%)

Language : English

Default : No

Forced : No

Text

ID : 5

Format : UTF-8

Codec ID : S_TEXT/UTF8

Codec ID/Info : UTF-8 Plain Text

Language : English

Default : No

Forced : No

Menu

00:00:00.000 : en:00:00:00.000

00:05:27.452 : en:00:05:27.452

00:13:40.361 : en:00:13:40.361

00:22:26.011 : en:00:22:26.011

00:28:38.508 : en:00:28:38.508

00:35:07.314 : en:00:35:07.314

00:37:39.174 : en:00:37:39.174

00:49:02.857 : en:00:49:02.857

00:55:37.626 : en:00:55:37.626

01:01:08.039 : en:01:01:08.039

01:05:25.880 : en:01:05:25.880

01:17:57.673 : en:01:17:57.673
pb.wtf



Скачать Торжественный финал через торрент http://s018.radikal.ru/i514/1411/ab/95033af308a1.jpg Скачать фильм Торжественный финал через торрент бесплантно в хорошем качестве Описание: История знаменитого пианиста, который на много лет оказывается отлученным от концертной деятельности из-за патологической боязни ... 10 10 2
Торрент: Зарегистрирован [2014-11-29 16:41] · скачан: 29 раз
Статус: √ проверено
Размер: 7.03 GB
Как cкачать? Как скачать Торжественный финал через торрент | qTorrent

% Раздел Тема Автор DL S | L
Фильмы (DVD фильмы) [ 3.42 GB ] Торжественный финал / Grand Piano [2013 DVD5] R5 voovaz Скачать
1 | 0
Фильмы 2013 [DVDrip, WEB-DLRip, HDrip] [ 1.46 GB ] Торжественный финал / Grand Piano [2013 Испания HDRip MVO / лицензия Ворон Скачать
1 | 0
Фильмы (Blu-ray, BD-Remux, HDDVD) [ 18.82 GB ] Торжественный финал / Grand Piano [2013 Испания BDRemux VO+DVO+MVO лицензия] Ворон Скачать
1 | 0

28-11-2019 20:33  

Отключить всю рекламу на сайте

    Дорогой пользователь! Огромная просьба, поблагодарите релизера, оцените раздачу и оставьте свои комментарий, если Вы скачали Торжественный финал через торрент бесплатно! Внесите свою лепту в развитие PiratBit!
    Комментировать посты могут только пользователи прошедшие не сложную регистрацию
    Показать сообщения:    

    Торжественный финал через торрент
    Скачать бесплатно Торжественный финал
    Торжественный финал скачать торрент
    Торжественный финал смотреть онлайн
    Cкачать фильм Торжественный финал бесплатно
    Торжественный финал скачать торрент в хорошем качестве
    Торжественный финал смотреть онлайн бесплатно в хорошем качестве


    Вы не можете начинать темы
    Вы не можете отвечать на сообщения
    Вы не можете редактировать свои сообщения
    Вы не можете удалять свои сообщения
    Вы не можете голосовать в опросах
    Вы не можете прикреплять файлы к сообщениям
    Вы можете скачивать файлы