Ссылка на приватное зеркало нашего сайта всего за 1$. Внимание количество ограничено!!!

2 сезон

iTunes

1 сезон

1

2 сезон

2 сезон

iTunes

1 сезон

RePack

30

Ultimate

ВАЖНО

ИГРА 18+

pack

RePack

MK11
pack

Забери бонус

RePack

jed

!!Акция!!

Alien_Rage

RePack

fifa19

RePack

Assassins Creed: Odyssey

RePack

NEED FOR SPEED™ PAYBACK

4 сезон

9 сезон

Бесстыжие 9 сезон

Все сериалы

все сериалы на PB.wtf

RePack

FAR CRY 5
  

Торжественный финал / Grand Piano (Эухенио Мира / Eugenio Mira) [2013, Испания, США, триллер, детектив, BDRemux , VO+DVO+MVO лицензия] pb.wtf

Торжественный финал через торрент pb.wtf

Размер: 18.82 GB | Добавлен: 6 лет назад | Торрент скачан:10 раз
Скачать  

29-11-2014 16:47 Торжественный финал Скачать торрент  

«Play or Die»Торжественный финал / Grand Piano

Страна: Испания, США / Antena 3 Televisión, Atresmedia TelevisiГіn, Grand Piano Productions, Nostromo Canarias 1 AIE, Nostromo Pictures, Solution, Entertainment Group, Telefónica Producciones, Televisió de Catalunya (TV3)

Жанр: триллер, детектив

Год выпуска: 2013

Продолжительность: 01:30:06

Перевод: Профессиональный (многоголосый закадровый) + любительский двухголосый (den904 & DeadSno по переводу Janetta) + любительский одноголосый (Andi)

Cубтитры: русский, английский

Оригинальная аудиодорожка: английский

Режиссер: Эухенио Мира / Eugenio Mira

В ролях: Элайджа Вуд, Джон Кьюсак, Керри Бише, Тэмзин Эджертон, Аллен Лич, Дон МакМанус, Алекс Уинтер, Ди Уоллес-Стоун, Джим Арнольд, Джек Тейлор...

Описание: История знаменитого пианиста, который на много лет оказывается отлученным от концертной деятельности из-за патологической боязни сцены. Когда же, наконец, ему удается преодолеть свой страх и выступить перед публикой, он вдруг узнает, что попал в смертельную ловушку. На выбор ему уготованы только два варианта — либо продолжать мастерски играть, либо погибнуть вместе с женой от рук загадочного безумца.



Качество: BDRemux 1080p

Формат: MKV

Видео кодек: H.264

Аудио кодек: DTS,AC3

Видео: 1920x1080 (16:9), MPEG-4 AVC, 35 mbps / 23,976 fps

Аудио 1: Russian: 48 kHz, AC3, 3/2 (L,C,R,l,r) + LFE ch, 384.00 kbps constant | MVO

Аудио 2: Russian: 48 kHz, AC3, 3/2 (L,C,R,l,r) + LFE ch, 384.00 kbps constant | DVO (den904 & DeadSno по переводу Janetta)

Аудио 3: Russian: 48 kHz, AC3, 3/2 (L,C,R,l,r) + LFE ch, 384.00 kbps constant | VO (Andi)

Аудио 4: English: 48 kHz, DTS, 3/2 (L,C,R,l,r) + LFE ch, 1536.00 kbps constant

Формат субтитров: SoftSub (srt)

Дополнительно: Фильм разбит на главы, как на оригинальном Blu-ray диске.

Раздача от:
General

Format : Matroska

Format version : Version 4 / Version 2

File size : 18.8 GiB

Duration : 1h 30mn

Overall bit rate mode : Variable

Overall bit rate : 29.8 Mbps

Encoded date : UTC 2014-11-29 13:05:44

Writing application : mkvmerge v7.2.0 ('On Every Street') 64bit built on Sep 13 2014 15:52:10

Writing library : libebml v1.3.0 + libmatroska v1.4.1

Attachements : poster.jpg

DURATION : 01:30:06.464000000

NUMBER_OF_FRAMES : 168952

NUMBER_OF_BYTES : 259510272

_STATISTICS_WRITING_APP : mkvmerge v7.2.0 ('On Every Street') 64bit built on Sep 13 2014 15:52:10

_STATISTICS_WRITING_DATE_UTC : 2014-11-29 13:05:44

_STATISTICS_TAGS : BPS DURATION NUMBER_OF_FRAMES NUMBER_OF_BYTES

Video

ID : 1

Format : AVC

Format/Info : Advanced Video Codec

Format profile : High@L4.1

Format settings, CABAC : Yes

Format settings, ReFrames : 4 frames

Codec ID : V_MPEG4/ISO/AVC

Duration : 1h 30mn

Bit rate mode : Variable

Maximum bit rate : 35.0 Mbps

Width : 1 920 pixels

Height : 1 080 pixels

Display aspect ratio : 16:9

Frame rate mode : Constant

Frame rate : 23.976 fps

Standard : NTSC

Color space : YUV

Chroma subsampling : 4:2:0

Bit depth : 8 bits

Scan type : Progressive

Language : English

Default : Yes

Forced : No

Color primaries : BT.709

Transfer characteristics : BT.709

Matrix coefficients : BT.709

DURATION : 01:30:15.869000000

NUMBER_OF_FRAMES : 129851

NUMBER_OF_BYTES : 16916117855

_STATISTICS_WRITING_APP : mkvmerge v7.2.0 ('On Every Street') 64bit built on Sep 13 2014 15:52:10

_STATISTICS_WRITING_DATE_UTC : 2014-11-29 13:05:44

_STATISTICS_TAGS : BPS DURATION NUMBER_OF_FRAMES NUMBER_OF_BYTES

Audio #1

ID : 2

Format : AC-3

Format/Info : Audio Coding 3

Mode extension : CM (complete main)

Format settings, Endianness : Big

Codec ID : A_AC3

Duration : 1h 30mn

Bit rate mode : Constant

Bit rate : 384 Kbps

Channel(s) : 6 channels

Channel positions : Front: L C R, Side: L R, LFE

Sampling rate : 48.0 KHz

Bit depth : 16 bits

Compression mode : Lossy

Stream size : 248 MiB (1%)

Title : MVO

Language : Russian

Default : Yes

Forced : No

Audio #2

ID : 3

Format : AC-3

Format/Info : Audio Coding 3

Mode extension : CM (complete main)

Format settings, Endianness : Big

Codec ID : A_AC3

Duration : 1h 30mn

Bit rate mode : Constant

Bit rate : 640 Kbps

Channel(s) : 6 channels

Channel positions : Front: L C R, Side: L R, LFE

Sampling rate : 48.0 KHz

Bit depth : 16 bits

Compression mode : Lossy

Stream size : 413 MiB (2%)

Title : DVO (den904 & DeadSno)

Language : Russian

Default : No

Forced : No

Audio #3

ID : 4

Format : AC-3

Format/Info : Audio Coding 3

Mode extension : CM (complete main)

Format settings, Endianness : Big

Codec ID : A_AC3

Duration : 1h 30mn

Bit rate mode : Constant

Bit rate : 320 Kbps

Channel(s) : 6 channels

Channel positions : Front: L C R, Side: L R, LFE

Sampling rate : 48.0 KHz

Bit depth : 16 bits

Compression mode : Lossy

Stream size : 207 MiB (1%)

Title : VO (Andi)

Language : Russian

Default : No

Forced : No

Audio #4

ID : 5

Format : DTS

Format/Info : Digital Theater Systems

Format profile : MA / Core

Mode : 16

Format settings, Endianness : Big

Codec ID : A_DTS

Duration : 1h 30mn

Bit rate mode : Variable

Bit rate : Unknown / 1 509 Kbps

Channel(s) : 6 channels

Channel positions : Front: L C R, Side: L R, LFE

Sampling rate : 48.0 KHz

Bit depth : 24 bits

Compression mode : Lossless / Lossy

Title : Original

Language : English

Default : No

Forced : No

Text #1

ID : 6

Format : UTF-8

Codec ID : S_TEXT/UTF8

Codec ID/Info : UTF-8 Plain Text

Title : А. Гаврилова (Weiz)

Language : Russian

Default : No

Forced : No

Text #2

ID : 7

Format : UTF-8

Codec ID : S_TEXT/UTF8

Codec ID/Info : UTF-8 Plain Text

Language : English

Default : No

Forced : No

Menu

00:00:00.000 : :Where Is The Freakin' Thing

00:05:30.163 : :Classical Concert

00:13:02.698 : :Welcome Back

00:18:50.045 : :Five Minutes

00:28:29.541 : :Make Emma Pround

00:35:15.321 : :The One And Only

00:41:02.084 : :What Was That Tom?

00:48:54.222 : :Wat Are You Waiting For?

00:56:03.568 : :Tell Me Something

01:05:03.524 : :What Did You Do?

01:13:49.133 : :I Need To Finish This

01:18:05.681 : :End Credits
pb.wtf



Скачать Торжественный финал через торрент http://s018.radikal.ru/i514/1411/ab/95033af308a1.jpg Скачать фильм Торжественный финал через торрент бесплантно в хорошем качестве Описание: История знаменитого пианиста, который на много лет оказывается отлученным от концертной деятельности из-за патологической боязни ... 10 10 3
Торрент: Зарегистрирован [2014-11-29 16:47] · скачан: 10 раз
Статус: √ проверено
Размер: 18.82 GB
Как cкачать? Как скачать Торжественный финал через торрент | qTorrent

% Раздел Тема Автор DL S | L
Фильмы (DVD фильмы) [ 3.42 GB ] Торжественный финал / Grand Piano [2013 DVD5] R5 voovaz Скачать
1 | 0
Фильмы 2013 [DVDrip, WEB-DLRip, HDrip] [ 1.46 GB ] Торжественный финал / Grand Piano [2013 Испания HDRip MVO / лицензия Ворон Скачать
1 | 0
Фильмы [HD 720p, 1080p] (Хороший звук DUB, MVO) [ 7.03 GB ] Торжественный финал / Grand Piano [2013 Испания BDRip 1080p DVO+MVO лицензия] Ворон Скачать
1 | 0

28-11-2019 20:33  

Отключить всю рекламу на сайте

    Дорогой пользователь! Огромная просьба, поблагодарите релизера, оцените раздачу и оставьте свои комментарий, если Вы скачали Торжественный финал через торрент бесплатно! Внесите свою лепту в развитие PiratBit!
    Комментировать посты могут только пользователи прошедшие не сложную регистрацию
    Показать сообщения:    

    Торжественный финал через торрент
    Скачать бесплатно Торжественный финал
    Торжественный финал скачать торрент
    Торжественный финал смотреть онлайн
    Cкачать фильм Торжественный финал бесплатно
    Торжественный финал скачать торрент в хорошем качестве
    Торжественный финал смотреть онлайн бесплатно в хорошем качестве


    Вы не можете начинать темы
    Вы не можете отвечать на сообщения
    Вы не можете редактировать свои сообщения
    Вы не можете удалять свои сообщения
    Вы не можете голосовать в опросах
    Вы не можете прикреплять файлы к сообщениям
    Вы можете скачивать файлы