1 сезон

3 сезон

iTunes

1

iTunes

MVO

iTunes

13

1 сезон

RePack

30

Deluxe

pack

Лицензия

ВАЖНО

ИГРА 18+

pack

RePack

MK11

RePack

jed

RePack

fifa19

RePack

RDR2

RePack

NEED FOR SPEED™ PAYBACK

4 сезон

9 сезон

Бесстыжие 9 сезон

Все сериалы

все сериалы на PB.wtf

RePack

FAR CRY 5

Anonymous, доброе утро, мы катастрофически не успеваем собрать деньги на оплату серверов, помогите нам пожалуйста 5,10,15р., для нас важна любая помощь . В качестве благодарности мы отключим Вам всю рекламу на сайте (укажите свой ник в строку Ваше имя)!

×
  
Magnet ссылка

Час призраков 2 / Ti sam khuen sam 3D / 3 A.M. 3D (Исара Нади) [2014, ужасы, DVD5] R5 pb.wtf

Час призраков 2 через торрент pb.wtf

Размер: 4.31 GB | Добавлен: 6 лет 7 мес. назад | Торрент скачан:43 раза
Скачать  

29-11-2014 19:27 Час призраков 2 Скачать торрент  


Час призраков 2 / Ti sam khuen sam 3D / 3 A.M. 3D
«Время пришло»
Страна: Таиланд
Студия: Five Stars Production Company
Жанр: ужасы
Год выпуска: 2014
Мировая премьера: 16 января 2014
Российская премьера: 16 октября 2014
Дата выхода DVD: 20 ноября 2014
Продолжительность: 01:39:32
Перевод: Профессиональный (дублированный) [Лицензия]
Cубтитры: нет
Оригинальная аудиодорожка: нет
Режиссер: Исара Нади, Кирати Накинтанон, Путипонг Саисикаев / Isara Nadee, Kirati Nakintanon, Putipong Saisikaew
В ролях: Синджай Пленгпанит, Супанарт Джитталила, Рэй МакДональд, Тхават Порнраттанапрасерт, Хатайтят Юркиттирой, Интач Леораквонг, Джирават Вачирасарунпат, Апапаттра Мисанг, Понгсатом Шрипинта, Пэтти Хокари...
Описание: «Третья ночь». Он был крутым парнем, который держал в страхе весь район. После его гибели, кто-то начал клеиться к его красавице жене. Какое безрассудство! Ведь он был так ревнив при жизни. На третью ночь после смерти он вернулся!
«Монастырь». Легенда гласит, что если ночью придти в заброшенную часовню рядом со школой и загадать желание у духа безголовой монахини, оно непременно сбудется. Но сходить туда можно только одному. Если условие будет нарушено, ты умрешь. Одна из учащихся решает проверить легенду.
«Дары усопшим». Два работника проводят ночь в магазинчике ритуальных услуг вместе со своим боссом. Все идет нормально, до тех пор, пока они не узнают, что их босс погиб накануне в автомобильной катастрофе. Кто же тогда этот человек в магазине?

Бонусы: нет

Релиз группы:
Качество: DVD5 R5
Формат: DVD-Video
Видео кодек: MPEG2
Аудио кодек: AC3
Видео: PAL 16:9 (720x576(0.530)) MPEG Video, 25,000 кадр/сек, 5500 Кбит/сек
Аудио: Russian (Dolby AC3, 6 ch) 448 Кбит/сек, 48,0 КГц



Title: Chas.prizrakov.2.2014.DVD5
Size: 4.31 Gb ( 4 523 656,00 KBytes ) - DVD-5
Enabled regions: 1, 2, 3, 4, 5, 6, 7, 8

VTS_01 :
Play Length: 00:00:19
Video: PAL 16:9 (720x576) VBR, Auto Pan&Scan, Auto Letterboxed
Audio:
Not specified (Dolby AC3, 2 ch)

VTS_02 :
Play Length: 01:39:32
Video: PAL 16:9 (720x576) VBR, Auto Pan&Scan, Auto Letterboxed
Audio:
Not specified (Dolby AC3, 6 ch)

* Menus Information *

VIDEO_TS Menu
Video:
PAL 16:9 (720x576) VBR
Auto Pan&Scan, Auto Letterboxed
English Language Unit :
Title Menu

VTS_01 Menu
Video:
PAL 16:9 (720x576) VBR
Auto Pan&Scan, Auto Letterboxed
Audio:
Not specified (Dolby AC3, 6 ch)
English Language Unit :
Root Menu

VTS_02 Menu
Video:
PAL 4:3 (720x576) VBR
English Language Unit :
Root Menu
Общее
Полное имя : F:\Новинки 2014\Chas.prizrakov.2.2014.DVD5\VIDEO_TS\VTS_02_1.VOB
Формат : MPEG-PS
Размер файла : 1024 Мбайт
Продолжительность : 23 м.
Общий поток : 6067 Кбит/сек

Видео
Идентификатор : 224 (0xE0)
Формат : MPEG Video
Версия формата : Version 2
Профиль формата : Main@Main
Параметр BVOP формата : Да
Параметр матрицы формата : По умолчанию
Параметр GOP формата : M=3, N=12
Продолжительность : 23 м.
Битрейт : 5500 Кбит/сек
Ширина : 720 пикселей
Высота : 576 пикселей
Соотношение сторон : 16:9
Частота кадров : 25,000 кадров/сек
Стандарт вещания : PAL
Цветовое пространство : YUV
Субдискретизация насыщенности : 4:2:0
Битовая глубина : 8 бит
Тип развёртки : Прогрессивная
Метод сжатия : С потерями
Бит/(Пиксели*Кадры) : 0.530
Временной код первого кадра : 00:00:00:00
Оригинал временного кода : Group of pictures header
Размер потока : 928 Мбайт (91%)

Аудио
Идентификатор : 189 (0xBD)-128 (0x80)
Формат : AC-3
Формат/Информация : Audio Coding 3
Расширение режима : CM (complete main)
Параметр Endianness формата : Big
Режим смешивания : DVD-Video
Продолжительность : 23 м.
Вид битрейта : Постоянный
Битрейт : 448 Кбит/сек
Каналы : 6 каналов
Расположение каналов : Front: L C R, Side: L R, LFE
Частота : 48,0 КГц
Битовая глубина : 16 бит
Метод сжатия : С потерями
Размер потока : 75,6 Мбайт (7%)










pb.wtf



Скачать Час призраков 2 через торрент http://i68.fastpic.ru/big/2014/1129/88/9095ea486804eba5b84ef78ac38bed88.jpg Скачать фильм Час призраков 2 через торрент бесплантно в хорошем качестве Описание: «Третья ночь». Он был крутым парнем, который держал в страхе весь район. После его гибели, кто-то начал клеиться к его красавице ... 3.3 10 4
Торрент: Зарегистрирован [2014-11-29 19:27] · скачан: 43 раз
Статус: √ проверено
Размер: 4.31 GB
Как cкачать? Как скачать Час призраков 2 через торрент | UTorrent

28-11-2019 20:33  

Отключить всю рекламу на сайте

    Дорогой пользователь! Огромная просьба, поблагодарите релизера, оцените раздачу и оставьте свои комментарий, если Вы скачали Час призраков 2 через торрент бесплатно! Внесите свою лепту в развитие PiratBit!
    Комментировать посты могут только пользователи прошедшие не сложную регистрацию
    Показать сообщения:    

    Час призраков 2 через торрент
    Скачать бесплатно Час призраков 2
    Час призраков 2 скачать торрент
    Час призраков 2 смотреть онлайн
    Cкачать фильм Час призраков 2 бесплатно
    Час призраков 2 скачать торрент в хорошем качестве
    Час призраков 2 смотреть онлайн бесплатно в хорошем качестве


    Вы не можете начинать темы
    Вы не можете отвечать на сообщения
    Вы не можете редактировать свои сообщения
    Вы не можете удалять свои сообщения
    Вы не можете голосовать в опросах
    Вы не можете прикреплять файлы к сообщениям
    Вы можете скачивать файлы