Ссылка на приватное зеркало всего за 1$. Внимание количество ограничено!!!

iTunes

iTunes

iTunes

1

iTunes

iTunes

iTunes

iTunes

iTunes

30
pack

$ от Little Big

ВАЖНО

!!Акция!!

Alien_RageХит недели

RePack

Resident Evil 21

ИГРА 18+

pack

RePack

jed

!!Акция!!

Alien_Rage

RePack

fifa19

RePack

Assassins Creed: Odyssey

RePack

NEED FOR SPEED™ PAYBACK

4 сезон

9 сезон

Бесстыжие 9 сезон

Все сериалы

все сериалы на PB.wtf

RePack

FAR CRY 5
  

Менталист / The Mentalist / 7 сезон / 1-13 серия из 13 (2014) WEB-DL 720p / BaibaKo pb.wtf

Менталист через торрент pb.wtf

Размер: 18.39 GB | Добавлен: 5 лет 4 мес. назад | Торрент скачан:539 раз
Скачать  

30-11-2014 03:26 Менталист Скачать торрент  

Менталист / The Mentalist
«Он смотрит сквозь ложь»


  • Год выпуска: 2014
  • Страна: США
  • Жанр: триллер, драма, криминал, детектив
  • Продолжительность: 00:42:54 (Серия)
  • Перевод: Профессиональный многоголосый закадровый) [BaibaKo]

  • В ролях:

    Саймон Бейкер (Patrick Jane), Робин Танни (Teresa Lisbon), Тим Кенг (Kimball Cho), Овайн Йомэн (Wayne Rigsby), Аманда Ригетти (Grace Van Pelt), Рокмонд Данбар (Dennis Abbott), Онжаню Эллис (Madeleine Hightower), Майкл Гэстон (Gale Bertram), Грегори Итцин (Virgil Minelli), Джон Трой Донован (CBI Ron), Эмили Суоллоу (Kim Fischer), Джо Адлер (Jason Wylie)

  • Описание:
    Патрик Джейн - детектив и независимый консультант из Калифорнийского Бюро Расследований (КБР), он использует свои отточенные, как лезвие, навыки наблюдения для раскрытия тяжких преступлений. В самом Бюро Джейн известен за частые нарушения протокола, а также за его звездное прошлое: он работал медиумом, однако теперь сам признает, что симулировал паранормальные способности. Роль Джейна в раскрытии целой серии загадочных преступлений высоко ценится коллегами. Но суровая старший агент Тереза Лисбон против того, чтоб Джейн работал с ее отрядом, и то вынужденно признает его успехи, то критикует его за театральность, нарциссизм и отсутствие границ.
  • Рейтинг:



  • Качество: WEB-DL 720p
  • Формат: :MKV
  • Видео кодек: AVC
  • Аудио кодек: AC3
  • Видео: 4096 Кбит/сек, 1280*718 (16:9), в 23,976 кадра/сек, AVC
  • Аудио: Русский 384 Кбит/сек, 48,0 КГц, 16 бит, 6 каналов, AC-3
  • Аудио: Английский 384 Кбит/сек, 48,0 КГц, 16 бит, 6 каналов, AC-3
  • Релиз от: GEKADOL

    Код:

    Внимание! Раздача ведётся путём добавления новых серий; при каждом добавлении создаётся новый торрент. Чтобы начать докачку новой серии, пользователям необходимо сделать следующее:
    (1) остановить скачивание,
    (2) удалить старый торрент у себя из клиента (старые серии удалять не надо),
    (3) скачать новый торрент и запустить его у себя в клиенте вместо старого, при этом указать клиенту путь в старую папку куда и должно происходить скачивание новых серий.
    Ваш клиент при этом должен произвести хеширование (проверку) старой папки (если не производит сам - помогите ему сделать это), и будет докачивать только те серии которых у вас ещё нет. Старые серии при этом не удаляются, а продолжают раздаваться!
    Eсли вы уже удалили старые серии, то предотвратить повторную закачку старых серий можно, отжав галочку в соответствующих местах при запуске нового торрента. По возможности, желательно не удалять старые серии как можно дольше чтобы релизёр не столько продолжал раздавать старые серии, а смог сконцентрироваться на новых.


    Код:

    Общее
    Уникальный идентификатор                 : 227600106463486948470543383931016472537 (0xAB3A2FA036017286B3485245E0FC67D9)
    Полное имя                               : D:\Фильмы\The Mentalist - Менталист. Сезон 7. BaibaKo. 720p\Mentalist.s07e07.HD720p.WEB-DL.Rus.Eng.BaibaKo.tv.mkv
    Формат                                   : Matroska
    Версия формата                           : Version 4 / Version 2
    Размер файла                             : 1,49 Гбайт
    Продолжительность                        : 43 м.
    Общий поток                              : 4963 Кбит/сек
    Дата кодирования                         : UTC 2015-01-20 03:01:36
    Программа кодирования                    : mkvmerge v7.4.0 ('Circles') 64bit built on Dec 12 2014 12:19:56
    Библиотека кодирования                   : libebml v1.3.0 + libmatroska v1.4.1
    DURATION                                 : 00:43:05.628000000
    NUMBER_OF_FRAMES                         : 61993
    NUMBER_OF_BYTES                          : 1355164767
    _STATISTICS_WRITING_APP                  : mkvmerge v7.4.0 ('Circles') 64bit built on Dec 12 2014 12:19:56
    _STATISTICS_WRITING_DATE_UTC             : 2015-01-20 03:01:36
    _STATISTICS_TAGS                         : BPS DURATION NUMBER_OF_FRAMES NUMBER_OF_BYTES

    Видео
    Идентификатор                            : 1
    Формат                                   : AVC
    Формат/Информация                        : Advanced Video Codec
    Профиль формата                          : High@L3.1
    Параметр CABAC формата                   : Нет
    Параметр ReFrames формата                : 2 кадра
    Идентификатор кодека                     : V_MPEG4/ISO/AVC
    Продолжительность                        : 43 м.
    Битрейт                                  : 4096 Кбит/сек
    Ширина                                   : 1280 пикселей
    Высота                                   : 718 пикселей
    Соотношение сторон                       : 16:9
    Режим частоты кадров                     : Постоянный
    Частота кадров                           : 23,976 кадра/сек
    Цветовое пространство                    : YUV
    Субдискретизация насыщенности            : 4:2:0
    Битовая глубина                          : 8 бит
    Тип развёртки                            : Прогрессивная
    Бит/(Пиксели*Кадры)                      : 0.186
    Размер потока                            : 1,23 Гбайт (83%)
    Язык                                     : English
    Default                                  : Да
    Forced                                   : Нет
    Основные цвета                           : BT.709
    Характеристики трансфера                 : BT.709
    Коэффициенты матрицы                     : BT.709

    Аудио #1
    Идентификатор                            : 2
    Формат                                   : AC-3
    Формат/Информация                        : Audio Coding 3
    Расширение режима                        : CM (complete main)
    Параметр Endianness формата              : Big
    Идентификатор кодека                     : A_AC3
    Продолжительность                        : 43 м.
    Вид битрейта                             : Постоянный
    Битрейт                                  : 384 Кбит/сек
    Каналы                                   : 6 каналов
    Расположение каналов                     : Front: L C R, Side: L R, LFE
    Частота                                  : 48,0 КГц
    Битовая глубина                          : 16 бит
    Метод сжатия                             : С потерями
    Размер потока                            : 118 Мбайт (8%)
    Язык                                     : Russian
    Default                                  : Да
    Forced                                   : Нет

    Аудио #2
    Идентификатор                            : 3
    Формат                                   : AC-3
    Формат/Информация                        : Audio Coding 3
    Расширение режима                        : CM (complete main)
    Параметр Endianness формата              : Big
    Идентификатор кодека                     : A_AC3
    Продолжительность                        : 43 м.
    Вид битрейта                             : Постоянный
    Битрейт                                  : 384 Кбит/сек
    Каналы                                   : 6 каналов
    Расположение каналов                     : Front: L C R, Side: L R, LFE
    Частота                                  : 48,0 КГц
    Битовая глубина                          : 16 бит
    Метод сжатия                             : С потерями
    Размер потока                            : 118 Мбайт (8%)
    Язык                                     : English
    Default                                  : Нет
    Forced                                   : Нет


    Скриншоты:
    скриншот   скриншот   скриншот   скриншот   скриншот  
    скриншот  

    Раздача ведётся путём добавления новых серий. Добавлена 13 заключительная серия (25.02.2015).Просьба перекачать торрент файл.

    pb.wtf



  • Скачать Менталист через торрент http://i63.fastpic.ru/big/2014/1130/87/5466ca4cbbda43114dd0d294393c6e87.jpg Скачать фильм Менталист через торрент бесплантно в хорошем качестве Описание: Патрик Джейн - детектив и независимый консультант из Калифорнийского Бюро Расследований (КБР), он использует свои отточенные, как ... 10 10 34
    Info! Золотая раздача, скачанное не засчитывается.
    Торрент: Зарегистрирован [2015-02-25 02:32] · скачан: 539 раз
    Статус: √ проверено
    Размер: 18.39 GB
    Как cкачать? Как скачать Менталист через торрент | qTorrent



    Последний раз редактировалось: GEKADOL (2015-02-25 02:32), всего редактировалось 6 раз(а)

    28-11-2019 20:33  

    Отключить всю рекламу на сайте

    26-01-2015 15:57 Менталист Скачать торрент  

    Спасибо! Единственный где нашел свежие серииpb.wtf



    04-02-2015 06:17 Менталист Скачать торрент  

    monaXli писал(а):

    Спасибо! Единственный где нашел свежие серии

    pb.wtf



      Дорогой пользователь! Огромная просьба, поблагодарите релизера, оцените раздачу и оставьте свои комментарий, если Вы скачали Менталист через торрент бесплатно! Внесите свою лепту в развитие PiratBit!
      Комментировать посты могут только пользователи прошедшие не сложную регистрацию
      Показать сообщения:    

      Менталист через торрент
      Скачать бесплатно Менталист
      Менталист скачать торрент
      Менталист смотреть онлайн
      Cкачать фильм Менталист бесплатно
      Менталист скачать торрент в хорошем качестве
      Менталист смотреть онлайн бесплатно в хорошем качестве


      Вы не можете начинать темы
      Вы не можете отвечать на сообщения
      Вы не можете редактировать свои сообщения
      Вы не можете удалять свои сообщения
      Вы не можете голосовать в опросах
      Вы не можете прикреплять файлы к сообщениям
      Вы можете скачивать файлы