Ссылка на приватное зеркало нашего сайта всего за 1$. Внимание количество ограничено!!!

2 сезон

iTunes

1 сезон

1

2 сезон

2 сезон

iTunes

1 сезон

RePack

30

Новинка

ВАЖНО

ИГРА 18+

pack

RePack

MK11
pack

Забери бонус

RePack

jed

!!Акция!!

Alien_Rage

RePack

fifa19

RePack

Assassins Creed: Odyssey

RePack

NEED FOR SPEED™ PAYBACK

4 сезон

9 сезон

Бесстыжие 9 сезон

Все сериалы

все сериалы на PB.wtf

RePack

FAR CRY 5
  

Самый опасный человек / A Most Wanted Man (Антон Корбейн / Anton Corbijn) [2014, триллер, BDRemux / DUB Лицензия pb.wtf

Самый опасный человек через торрент pb.wtf

Размер: 27.35 GB | Добавлен: 5 лет 11 мес. назад | Торрент скачан:63 раза
Скачать  

30-11-2014 09:10 Самый опасный человек Скачать торрент  

Информация о фильме

Название: Самый опасный человек

Оригинальное название: A Most Wanted Man

Год выхода: 2014

Выпущено: Великобритания, США, Германия / Ink Factory, The, Potboiler Productions, Amusement Park Films

Продолжительность: 02:02:23

Озвучивание: Дублированное [Лицензия]

Жанр: триллер

Режиссер: Антон Корбейн

В ролях: Филип Сеймур Хоффман, Рэйчел МакАдамс, Уиллем Дефо, Робин Райт, Григорий Добрыгин, Хомаюн Эршади, Мехди Дехби, Нил Малик Абдулла, Нина Хосс, Даниэль Брюль

Описание:

Каждая война начинается со страха. Каждое предательство начинается с доверия. Глава секретного подразделения разведки получает задание найти опасного международного беглеца Ису Карпова, которого из симпатии укрывает молодая девушка-адвокат. Когда в погоню вступают разведки других стран, начинается большая шпионская игра, в которой любой может оказаться наживкой или акулой. А национальная безопасность нередко зависит от простых человеческих чувств.



Файл
Качество: BDRemux

Формат: MKV

Видео кодек: H.264

Аудио кодек: AC3

Видео: 29.4 Mb/s, 1920х1080, 23.976 fps

Аудио1: Russian: AC3, 448 Kb/s (6 ch), 48 kHz

Аудио2: English: DTS, 1510 Kb/s (6 ch), 48 kHz

Субтитры: English
General

Unique ID : 238334640927550575375744323914491604349 (0xB34D950966F12F5681AF63E153F5AD7D)

Complete name : A.Most.Wanted.Man.2014.D.BDRemux.ELEKTRI4KA.mkv

Format : Matroska

Format version : Version 4 / Version 2

File size : 27.3 GiB

Duration : 2h 2mn

Overall bit rate mode : Variable

Overall bit rate : 32.0 Mbps

Movie name : A.Most.Wanted.Man.2014.D.BDRemux.ELEKTRI4KA

Encoded date : UTC 2014-11-27 16:18:21

Writing application : mkvmerge v7.3.0 ('Nouages') 64bit built on Oct 22 2014 18:53:34

Writing library : libebml v1.3.0 + libmatroska v1.4.1

DURATION : 02:02:23.595000000

NUMBER_OF_FRAMES : 688462

NUMBER_OF_BYTES : 1385185544

_STATISTICS_WRITING_APP : mkvmerge v7.3.0 ('Nouages') 64bit built on Oct 22 2014 18:53:34

_STATISTICS_WRITING_DATE_UT : 2014-11-27 16:18:21

_STATISTICS_TAGS : BPS DURATION NUMBER_OF_FRAMES NUMBER_OF_BYTES

Video

ID : 1

Format : AVC

Format/Info : Advanced Video Codec

Format profile : High@L4.1

Format settings, CABAC : Yes

Format settings, ReFrames : 4 frames

Codec ID : V_MPEG4/ISO/AVC

Duration : 2h 2mn

Bit rate mode : Variable

Bit rate : 29.4 Mbps

Maximum bit rate : 35.0 Mbps

Width : 1 920 pixels

Height : 1 080 pixels

Display aspect ratio : 16:9

Frame rate mode : Constant

Frame rate : 23.976 fps

Standard : NTSC

Color space : YUV

Chroma subsampling : 4:2:0

Bit depth : 8 bits

Scan type : Progressive

Bits/(Pixel*Frame) : 0.591

Stream size : 25.1 GiB (92%)

Title : A.Most.Wanted.Man.2014.D.BDRemux.ELEKTRI4KA

Language : English

Default : No

Forced : No

Color primaries : BT.709

Transfer characteristics : BT.709

Matrix coefficients : BT.709

Color range : Limited

DURATION : 02:02:23.586000000

NUMBER_OF_FRAMES : 176070

NUMBER_OF_BYTES : 27555173433

_STATISTICS_WRITING_APP : mkvmerge v7.3.0 ('Nouages') 64bit built on Oct 22 2014 18:53:34

_STATISTICS_WRITING_DATE_UT : 2014-11-27 16:18:21

_STATISTICS_TAGS : BPS DURATION NUMBER_OF_FRAMES NUMBER_OF_BYTES

Audio #1

ID : 2

Format : AC-3

Format/Info : Audio Coding 3

Mode extension : CM (complete main)

Format settings, Endianness : Big

Codec ID : A_AC3

Duration : 2h 2mn

Bit rate mode : Constant

Bit rate : 448 Kbps

Channel(s) : 6 channels

Channel positions : Front: L C R, Side: L R, LFE

Sampling rate : 48.0 KHz

Bit depth : 16 bits

Compression mode : Lossy

Delay relative to video : 35s 0ms

Stream size : 392 MiB (1%)

Title : DUB

Language : Russian

Default : Yes

Forced : Yes

Audio #2

ID : 3

Format : DTS

Format/Info : Digital Theater Systems

Mode : 16

Format settings, Endianness : Big

Codec ID : A_DTS

Duration : 2h 2mn

Bit rate mode : Constant

Bit rate : 1 509 Kbps

Channel(s) : 6 channels

Channel positions : Front: L C R, Side: L R, LFE

Sampling rate : 48.0 KHz

Bit depth : 24 bits

Compression mode : Lossy

Stream size : 1.29 GiB (5%)

Title : Original

Language : English

Default : No

Forced : No

Text #1

ID : 4

Format : PGS

Muxing mode : zlib

Codec ID : S_HDMV/PGS

Codec ID/Info : The same subtitle format used on BDs/HD-DVDs

Language : English

Default : No

Forced : No

Text #2

ID : 5

Format : PGS

Muxing mode : zlib

Codec ID : S_HDMV/PGS

Codec ID/Info : The same subtitle format used on BDs/HD-DVDs

Title : SDH

Language : English

Default : No

Forced : No

Menu

00:00:00.000 : en:00:00:00.000

00:08:26.256 : en:00:08:26.256

00:15:38.771 : en:00:15:38.771

00:24:58.872 : en:00:24:58.872

00:30:40.047 : en:00:30:40.047

00:37:54.147 : en:00:37:54.147

00:47:22.381 : en:00:47:22.381

00:52:45.079 : en:00:52:45.079

01:02:10.602 : en:01:02:10.602

01:09:44.430 : en:01:09:44.430

01:16:51.816 : en:01:16:51.816

01:25:22.826 : en:01:25:22.826

01:32:06.229 : en:01:32:06.229

01:40:02.914 : en:01:40:02.914

01:49:38.322 : en:01:49:38.322

01:55:53.029 : en:01:55:53.029


pb.wtf



Скачать Самый опасный человек через торрент http://i68.fastpic.ru/big/2014/1026/87/d38720ab093598067c7a0530f9a79f87.png Скачать фильм Самый опасный человек через торрент бесплантно в хорошем качестве Описание: Каждая война начинается со страха. Каждое предательство начинается с доверия. Глава секретного подразделения разведки получает ... 10 10 1
Info! Золотая раздача, скачанное не засчитывается.
Торрент: Зарегистрирован [2014-11-30 09:10] · скачан: 63 раз
Статус: √ проверено
Размер: 27.35 GB
Как cкачать? Как скачать Самый опасный человек через торрент | qTorrent

28-11-2019 20:33  

Отключить всю рекламу на сайте

30-11-2014 10:42 Самый опасный человек Скачать торрент  

Цитата:

Аудио2: English: DTS, 1510 Kb/s (6 ch), 48 kHz

Электричка в своём репертуаре. pb.wtf



    Дорогой пользователь! Огромная просьба, поблагодарите релизера, оцените раздачу и оставьте свои комментарий, если Вы скачали Самый опасный человек через торрент бесплатно! Внесите свою лепту в развитие PiratBit!
    Комментировать посты могут только пользователи прошедшие не сложную регистрацию
    Показать сообщения:    

    Самый опасный человек через торрент
    Скачать бесплатно Самый опасный человек
    Самый опасный человек скачать торрент
    Самый опасный человек смотреть онлайн
    Cкачать фильм Самый опасный человек бесплатно
    Самый опасный человек скачать торрент в хорошем качестве
    Самый опасный человек смотреть онлайн бесплатно в хорошем качестве


    Вы не можете начинать темы
    Вы не можете отвечать на сообщения
    Вы не можете редактировать свои сообщения
    Вы не можете удалять свои сообщения
    Вы не можете голосовать в опросах
    Вы не можете прикреплять файлы к сообщениям
    Вы можете скачивать файлы