2 сезон

iTunes

1 сезон

1

iTunes

iTunes

iTunes

1 сезон

RePack

30

ИГРА 18+

pack

ВАЖНО

!!Акция!!

Alien_RageХит недели

RePack

MK11
pack

Забери бонус

RePack

jed

!!Акция!!

Alien_Rage

RePack

fifa19

RePack

Assassins Creed: Odyssey

RePack

NEED FOR SPEED™ PAYBACK

4 сезон

9 сезон

Бесстыжие 9 сезон

Все сериалы

все сериалы на PB.wtf

RePack

FAR CRY 5
  

Правила жизни французского парня / Libre et assoupi (Бенжамин Гуеди ) [2014, комедия, BDRip 1080p, Профессиональный многоголосый [Чистый звук] pb.wtf

Правила жизни французского парня через торрент pb.wtf

Размер: 8.71 GB | Добавлен: 5 лет 11 мес. назад | Торрент скачан:159 раз
Скачать  

30-11-2014 12:37 Правила жизни французского парня Скачать торрент  


Правила жизни французского парня / Libre et assoupi


Год выпуска:2014
Страна: Франция
Жанр:комедия
Продолжительность:01:32:52
Перевод:Профессиональный многоголосый [Чистый звук]
Субтитры: French (SRT Forced FR), French (PGS Forced FR),
Режиссер:Бенжамин Гуеди

  • В ролях:

    Баптист Лекаплен (Sébastien Morin), Шарлотта Ле Бон (Anna), Феликс Моати (Bruno), Дени Подалидес (Richard), Изабель Канделье (La mère de Sébastien), Жан-Ив Бертело (Le père de Sébastien), Сулиан Брахим (Valentine Caillou), Давид Байот (Stéphane), Лу Шовен (Delphine), Бенжамин Лаверн (Alexandre), Ричард Гуеди (Patrick), Жан-Мишель Лами (Le directeur de Numéripro)
  • Описание:
    Любимое занятие Себастьяна, на первый взгляд - ничегонеделание. Его диван для него целый мир. C него он и предпочитает наблюдать за своими друзьями по квартире: красивой независимой Анной и не совсем решительным Бруно. Лежа на диване, Себастьян черпает жизненный опыт из книг и видеоигр. Не выходя из квартиры, он предается самым незаурядным мечтам и фантазиям. Себастьян умеет получать удовольствие от простых вещей - в этом его главная заслуга, но в этом же и его проблема. Но в какой-то момент он начинает действовать... немного и по-своему.

  • Мировая премьера:16 января 2014

    Качество: BDRip 1080p
    Формат:MKV
    Видео кодек: AVC
    Аудио кодек:AC3
    Видео: AVC, 1920x1080 (16:9), 12600 kbps, 23,976 fps, 0,253 bpp
    Аудио №1: русский / AC3 / 2.0 / 48 kHz / 192 kbps / 16 bit ||
    Аудио №2: французский / AC3 / 5.1 / 48 kHz / 640 kbps / 16 bit
    Навигация по главам: есть


    Код:

    General
    Unique ID                                : 192839343635647238534813930163724985834 (0x911381B2EC1A7B4B9271C4272B25A5EA)
    Complete name                            : D:\Торенты\Prav1la.zhizn1.francuzskog0.parn9.2014.P.BDRip.1080p.ELEKTRI4KA.mkv
    Format                                   : Matroska
    Format version                           : Version 4 / Version 2
    File size                                : 8.71 GiB
    Duration                                 : 1h 32mn
    Overall bit rate                         : 13.4 Mbps
    Movie name                               : Libre.et.assoupi.2014.720p.BluRay.DD5.1.x264-VietHD
    Encoded date                             : UTC 2014-11-29 17:44:49
    Writing application                      : mkvmerge v7.2.0 ('On Every Street') 64bit built on Sep 13 2014 15:52:10
    Writing library                          : libebml v1.3.0 + libmatroska v1.4.1
    DURATION                                 : 01:32:52.544000000
    NUMBER_OF_FRAMES                         : 174142
    NUMBER_OF_BYTES                          : 445803520
    _STATISTICS_WRITING_APP                  : mkvmerge v7.2.0 ('On Every Street') 64bit built on Sep 13 2014 15:52:10
    _STATISTICS_WRITING_DATE_UTC             : 2014-11-29 17:44:49
    _STATISTICS_TAGS                         : BPS DURATION NUMBER_OF_FRAMES NUMBER_OF_BYTES

    Video
    ID                                       : 1
    Format                                   : AVC
    Format/Info                              : Advanced Video Codec
    Format profile                           : High@L4.1
    Format settings, CABAC                   : Yes
    Format settings, ReFrames                : 4 frames
    Codec ID                                 : V_MPEG4/ISO/AVC
    Duration                                 : 1h 32mn
    Bit rate                                 : 12.6 Mbps
    Width                                    : 1 920 pixels
    Height                                   : 1 080 pixels
    Display aspect ratio                     : 16:9
    Frame rate                               : 23.976 fps
    Color space                              : YUV
    Chroma subsampling                       : 4:2:0
    Bit depth                                : 8 bits
    Scan type                                : Progressive
    Bits/(Pixel*Frame)                       : 0.253
    Stream size                              : 8.00 GiB (92%)
    Writing library                          : x264 core 138 r2358 9e941d1
    Encoding settings                        : cabac=1 / ref=4 / deblock=1:-3:-3 / analyse=0x3:0x113 / me=umh / subme=11 / psy=1 / psy_rd=0.98:0.02 / mixed_ref=1 / me_range=128 / chroma_me=1 / trellis=2 / 8x8dct=1 / cqm=0 / deadzone=6,6 / fast_pskip=0 / chroma_qp_offset=-2 / threads=12 / lookahead_threads=2 / sliced_threads=0 / nr=0 / decimate=1 / interlaced=0 / bluray_compat=0 / constrained_intra=0 / bframes=8 / b_pyramid=2 / b_adapt=2 / b_bias=0 / direct=1 / weightb=1 / open_gop=1 / weightp=2 / keyint=240 / keyint_min=23 / scenecut=40 / intra_refresh=0 / rc_lookahead=240 / rc=2pass / mbtree=1 / bitrate=12600 / ratetol=1.0 / qcomp=0.60 / qpmin=0 / qpmax=69 / qpstep=4 / cplxblur=20.0 / qblur=0.5 / vbv_maxrate=50000 / vbv_bufsize=50000 / nal_hrd=none / ip_ratio=1.40 / aq=2:1.00
    Language                                 : English
    Default                                  : Yes
    Forced                                   : Yes
    DURATION                                 : 01:32:52.567000000
    NUMBER_OF_FRAMES                         : 133608
    NUMBER_OF_BYTES                          : 8773833881
    _STATISTICS_WRITING_APP                  : mkvmerge v7.2.0 ('On Every Street') 64bit built on Sep 13 2014 15:52:10
    _STATISTICS_WRITING_DATE_UTC             : 2014-11-29 17:44:49
    _STATISTICS_TAGS                         : BPS DURATION NUMBER_OF_FRAMES NUMBER_OF_BYTES
    Color primaries                          : BT.709-5, BT.1361, IEC 61966-2-4, SMPTE RP177
    Transfer characteristics                 : BT.709-5, BT.1361
    Matrix coefficients                      : BT.709-5, BT.1361, IEC 61966-2-4 709, SMPTE RP177

    Audio #1
    ID                                       : 2
    Format                                   : AC-3
    Format/Info                              : Audio Coding 3
    Mode extension                           : CM (complete main)
    Codec ID                                 : A_AC3
    Duration                                 : 1h 32mn
    Bit rate mode                            : Constant
    Bit rate                                 : 192 Kbps
    Channel(s)                               : 2 channels
    Channel positions                        : Front: L R
    Sampling rate                            : 48.0 KHz
    Bit depth                                : 16 bits
    Compression mode                         : Lossy
    Stream size                              : 128 MiB (1%)
    Language                                 : Russian
    Default                                  : Yes
    Forced                                   : No

    Audio #2
    ID                                       : 3
    Format                                   : AC-3
    Format/Info                              : Audio Coding 3
    Mode extension                           : CM (complete main)
    Codec ID                                 : A_AC3
    Duration                                 : 1h 32mn
    Bit rate mode                            : Constant
    Bit rate                                 : 640 Kbps
    Channel(s)                               : 6 channels
    Channel positions                        : Front: L C R, Side: L R, LFE
    Sampling rate                            : 48.0 KHz
    Bit depth                                : 16 bits
    Compression mode                         : Lossy
    Stream size                              : 425 MiB (5%)
    Language                                 : French
    Default                                  : No
    Forced                                   : No

    Text #1
    ID                                       : 4
    Format                                   : UTF-8
    Codec ID                                 : S_TEXT/UTF8
    Codec ID/Info                            : UTF-8 Plain Text
    Title                                    : SRT Forced FR
    Language                                 : French
    Default                                  : Yes
    Forced                                   : Yes

    Text #2
    ID                                       : 5
    Format                                   : PGS
    Muxing mode                              : zlib
    Codec ID                                 : S_HDMV/PGS
    Codec ID/Info                            : The same subtitle format used on BDs/HD-DVDs
    Title                                    : PGS Forced FR
    Language                                 : French
    Default                                  : No
    Forced                                   : No

    Menu
    00:00:00.000                             : en:00:00:00.000
    00:05:31.748                             : en:00:05:31.748
    00:14:50.098                             : en:00:14:50.098
    00:21:25.910                             : en:00:21:25.910
    00:29:09.831                             : en:00:29:09.831
    00:37:47.474                             : en:00:37:47.474
    00:51:06.021                             : en:00:51:06.021
    00:57:26.902                             : en:00:57:26.902
    01:05:23.253                             : en:01:05:23.253
    01:12:10.117                             : en:01:12:10.117
    01:21:28.133                             : en:01:21:28.133
    01:29:17.477                             : en:01:29:17.477

    Скриншоты:

    Каталог Новинок (Фильмы-трейлеры, Игры, Сериалы, Мультфильмы)

    © Оформление by Raven
    pb.wtf



  • Скачать Правила жизни французского парня через торрент http://pic.kartinco.top/images/6/ordi9.jpg Скачать фильм Правила жизни французского парня через торрент бесплантно в хорошем качестве Описание:Любимое занятие Себастьяна, на первый взгляд - ничегонеделание. Его диван для него целый мир. C него он и предпочитает наблюдать ... 6.7 10 7
    Торрент: Зарегистрирован [2014-11-30 12:37] · скачан: 159 раз
    Статус: T временная
    Размер: 8.71 GB
    Как cкачать? Как скачать Правила жизни французского парня через торрент | qTorrent

    % Раздел Тема Автор DL S | L
    Фильмы 2014 [DVDrip, WEB-DLRip, HDrip] [ 1.37 GB ] Правила жизни французского парня / Libre et assoupi [2014 HDRip многоголосый [НТВ Ворон Скачать
    1 | 0

    28-11-2019 20:33  

    Отключить всю рекламу на сайте

      Дорогой пользователь! Огромная просьба, поблагодарите релизера, оцените раздачу и оставьте свои комментарий, если Вы скачали Правила жизни французского парня через торрент бесплатно! Внесите свою лепту в развитие PiratBit!
      Комментировать посты могут только пользователи прошедшие не сложную регистрацию
      Показать сообщения:    

      Правила жизни французского парня через торрент
      Скачать бесплатно Правила жизни французского парня
      Правила жизни французского парня скачать торрент
      Правила жизни французского парня смотреть онлайн
      Cкачать фильм Правила жизни французского парня бесплатно
      Правила жизни французского парня скачать торрент в хорошем качестве
      Правила жизни французского парня смотреть онлайн бесплатно в хорошем качестве


      Вы не можете начинать темы
      Вы не можете отвечать на сообщения
      Вы не можете редактировать свои сообщения
      Вы не можете удалять свои сообщения
      Вы не можете голосовать в опросах
      Вы не можете прикреплять файлы к сообщениям
      Вы можете скачивать файлы