Ссылка на приватное зеркало всего за 1$. Внимание количество ограничено!!!

OK

1+1

iTunes

мы

OK

1

WEB-DLRip

Джокер

Пифагор

Ведьмак / The Witcher сериал

iTunes

ПШазам

ОК

Оно 2

iTunes

30
pack

Вам бонус

ВАЖНО

!!Акция!!

Alien_RageХит недели

RePack

Resident Evil 21

ИГРА 18+

pack

RePack

jed

RePack

fifa19

RePack

Assassins Creed: Odyssey

RePack

NEED FOR SPEED™ PAYBACK

4 сезон

9 сезон

Бесстыжие 9 сезон

Все сериалы

все сериалы на PB.wtf

RePack

FAR CRY 5
  

Шапито-шоу: Любовь и дружба (Сергей Лобан) [2011 г., комедия, HDRip] pb.wtf

Шапито-шоу: Любовь и дружба через торрент pb.wtf

Размер: 2.18 GB | Добавлен: 5 лет 1 мес. назад | Торрент скачан:37 раз
Скачать  

30-11-2014 16:09 Шапито-шоу: Любовь и дружба Скачать торрент  

Шапито-шоу: Любовь и дружба
Год выпуска: 2011
Страна: Россия
Жанр: комедия
Продолжительность: 01:46:37

Режиссер: Сергей Лобан

В ролях: Петр Мамонов, Вера Строкова, Сергей Попов, Алексей Подольский, Валерий Заводовский, Сергей Волжин-Ястребов, Юлия Говор, Дмитрий Новиков, Джим Авиньон, Сергей Кузьменко

Описание: Новелла «Любовь». Спешите видеть! Пронзительная история любви хрупкой девушки, которая мечтала стать принцессой, и загадочного юноши, который скрывается от людей под именем Киберстранник. Море слёз и бездна отчаяния! Могут ли Золушка и Человек-Невидимка быть вместе? Только у нас!

Новелла «Дружба». Впервые на экране! Юноша, утративший способность слышать, но сохранивший пылающее сердце, и мальчик с ледяным осколком в глазу. Коварное предательство и несгибаемое мужество! Огненный Данко и Ледяной Кай — две стихии, столкнувшись, могут уничтожить Вселенную! Торопитесь видеть!

Качество: HDRip
Формат: AVI
Видео кодек: XviD
Аудио кодек: AC3
Видео: MPEG4, XviD, 720x384 (1.875), 25.000 fps, 2 464 Kbps (0.356 bit/pixel)
Аудио: AC-3, 48.0 KHz, 6 ch, 448 Kbps, CBR

скриншот   скриншот   скриншот   скриншот   скриншот   скриншот   скриншот   скриншот  

Общее
Полное имя : G:\кино\Шапито-шоу. Любовь и дружба.2011.HDRip.avi
Формат : AVI
Формат/Информация : Audio Video Interleave
Профиль формата : OpenDML
Размер файла : 2,18 Гбайт
Продолжительность : 1 ч. 46 м.
Общий поток : 2924 Кбит/сек
Программа кодирования : VirtualDubMod 1.5.10.3 | www.virtualdub-fr.org || (build 2550/release)
Библиотека кодирования : VirtualDubMod build 2550/release

Видео
Идентификатор : 0
Формат : MPEG-4 Visual
Профиль формата : Advanced Simple@L5
Параметр BVOP формата : 2
Параметр QPel формата : Нет
Параметр GMC формата : Без точки перехода
Параметр матрицы формата : Default (H.263)
Идентификатор кодека : XVID
Идентификатор кодека/Подсказка : XviD
Продолжительность : 1 ч. 46 м.
Битрейт : 2464 Кбит/сек
Ширина : 720 пикселей
Высота : 384 пикселя
Соотношение сторон : 1,85:1
Частота кадров : 25,000 кадров/сек
Цветовое пространство : YUV
Субдискретизация насыщенности : 4:2:0
Битовая глубина : 8 бит
Тип развёртки : Прогрессивная
Метод сжатия : С потерями
Бит/(Пиксели*Кадры) : 0.356
Размер потока : 1,83 Гбайт (84%)
Библиотека кодирования : XviD 1.2.1 (UTC 2008-12-04)

Аудио
Идентификатор : 1
Формат : AC-3
Формат/Информация : Audio Coding 3
Расширение режима : CM (complete main)
Параметр Endianness формата : Big
Идентификатор кодека : 2000
Продолжительность : 1 ч. 46 м.
Вид битрейта : Постоянный
Битрейт : 448 Кбит/сек
Каналы : 6 каналов
Расположение каналов : Front: L C R, Side: L R, LFE
Частота : 48,0 КГц
Битовая глубина : 16 бит
Метод сжатия : С потерями
Размер потока : 342 Мбайт (15%)
Выравнивание : Разделение по промежуткам
Продолжительность промежутка : 40 мс. (1,00 видеокадр)
Время предзагрузки промежутка : 500 мс.

pb.wtf



Скачать Шапито-шоу: Любовь и дружба через торрент http://pic.kartinco.top/images/8/jlgy5.jpg Скачать фильм Шапито-шоу: Любовь и дружба через торрент бесплантно в хорошем качестве Описание: Новелла «Любовь». Спешите видеть! Пронзительная история любви хрупкой девушки, которая мечтала стать принцессой, и загадочного ... 10 10 5
Торрент: Зарегистрирован [2014-11-30 16:09] · скачан: 37 раз
Статус: √ проверено
Размер: 2.18 GB
Как cкачать? Как скачать Шапито-шоу: Любовь и дружба через торрент | qTorrent

% Раздел Тема Автор DL S | L
Наши фильмы 2010-2011 [ 2.74 GB ] Шапито-шоу: Любовь и дружба / Уважение и сотрудничество [2011 DVDRip лицензия] makarevich Скачать
1 | 0
Наши фильмы (DVD фильмы) [ 7.59 GB ] Шапито-шоу: Любовь и дружба / Уважение и сотрудничество [2011 DVD9] R5 voovaz Скачать
1 | 0

28-11-2019 20:33  

Отключить всю рекламу на сайте

    Дорогой пользователь! Огромная просьба, поблагодарите релизера, оцените раздачу и оставьте свои комментарий, если Вы скачали Шапито-шоу: Любовь и дружба через торрент бесплатно! Внесите свою лепту в развитие PiratBit!
    Комментировать посты могут только пользователи прошедшие не сложную регистрацию
    Показать сообщения:    

    Шапито-шоу: Любовь и дружба через торрент
    Скачать бесплатно Шапито-шоу: Любовь и дружба
    Шапито-шоу: Любовь и дружба скачать торрент
    Шапито-шоу: Любовь и дружба смотреть онлайн
    Cкачать фильм Шапито-шоу: Любовь и дружба бесплатно
    Шапито-шоу: Любовь и дружба скачать торрент в хорошем качестве
    Шапито-шоу: Любовь и дружба смотреть онлайн бесплатно в хорошем качестве


    Вы не можете начинать темы
    Вы не можете отвечать на сообщения
    Вы не можете редактировать свои сообщения
    Вы не можете удалять свои сообщения
    Вы не можете голосовать в опросах
    Вы не можете прикреплять файлы к сообщениям
    Вы можете скачивать файлы