Ссылка на приватное зеркало нашего сайта всего за 1$. Внимание количество ограничено!!!

2 сезон

iTunes

1 сезон

1

iTunes

iTunes

iTunes

1 сезон

RePack

30

ИГРА 18+

pack

ВАЖНО

!!Акция!!

Alien_RageХит недели

RePack

MK11
pack

Забери бонус

RePack

jed

!!Акция!!

Alien_Rage

RePack

fifa19

RePack

Assassins Creed: Odyssey

RePack

NEED FOR SPEED™ PAYBACK

4 сезон

9 сезон

Бесстыжие 9 сезон

Все сериалы

все сериалы на PB.wtf

RePack

FAR CRY 5
  

Педаль до упора / Borning / Børning (Хальвард Брейн / Hallvard Braein) [2014, Норвегия, комедия, DVDRip] VO (Andi) + Sub Rus, Nor + Original Nor pb.wtf

Педаль до упора через торрент pb.wtf

Размер: 1.74 GB | Добавлен: 5 лет 10 мес. назад | Торрент скачан:308 раз
Скачать  

30-11-2014 16:51 Педаль до упора Скачать торрент  



Педаль до упора / Børning


Год выпуска:2014
Страна: Норвегия
Жанр:боевик, комедия
Продолжительность:01:29:09
Перевод:Любительский (одноголосый)(Andi)
Cубтитры: русские, норвежские(отдельным файлом)
Оригинальная аудиодорожка: норвежский (отдельным файлом)
Режиссер:Халлвард Браэин

  • В ролях:

    Ларс Аренц-Хансен (Advokaten), Андерс Баасмо Кристиансен (Roy), Камилла Фрэй (Linda), Марсело Галван (Scared hitchhiker), Тронд Хальбо (TT), Отто Есперсен (Nybakken), Oskar Sandven Lundevold (Jimmy), Хенрик Местад (Phillip Mork), Свен Нордин (Doffen), Стейнар Саген, Дженни Скавлан (Sylvia), Trygve Svindland (Osvald)
  • Описание:
    У Роя одна, но пламенная страсть – гонки. И как раз, когда он готовится к важному соревнованию, на горизонте появляется 14-летняя дочь, требующая к себе повышенного внимания. Увлекшись выяснением отношений с ребенком, Рой проигрывает заезд, и теперь у него только один шанс восстановить свою репутацию – участие в гонке «Северный Мыс». Кто первым доберется из Осло до самой северной точки Норвегии, тот и будет признан величайшим гонщиком всех времен и народов…

  • Мировая премьера:13 августа 2014

    Качество: DVDRip
    Формат:AVI
    Видео кодек: XviD
    Аудио кодек:AC3
    Видео: XviD, 720x304 (2.35:1), 1889 kbps, 25 fps, 0,345 bpp
    Аудио: AC3 / 5.1 / 48 kHz / 448 kbps / 16 bit


    Код:

    General
    Complete name                            : D:\Торенты\ПедальДоУпора\ПедальДоУпора.avi
    Format                                   : AVI
    Format/Info                              : Audio Video Interleave
    File size                                : 1.46 GiB
    Duration                                 : 1h 29mn
    Overall bit rate                         : 2 347 Kbps
    Writing application                      : VirtualDubMod 1.5.10.2 (build 2540/release)
    Writing library                          : VirtualDubMod build 2540/release

    Video
    ID                                       : 0
    Format                                   : MPEG-4 Visual
    Format profile                           : Advanced Simple@L5
    Format settings, BVOP                    : 3
    Format settings, QPel                    : Yes
    Format settings, GMC                     : No warppoints
    Format settings, Matrix                  : Default (H.263)
    Codec ID                                 : XVID
    Codec ID/Hint                            : XviD
    Duration                                 : 1h 29mn
    Bit rate                                 : 1 890 Kbps
    Width                                    : 720 pixels
    Height                                   : 304 pixels
    Display aspect ratio                     : 2.35:1
    Frame rate                               : 25.000 fps
    Color space                              : YUV
    Chroma subsampling                       : 4:2:0
    Bit depth                                : 8 bits
    Scan type                                : Progressive
    Compression mode                         : Lossy
    Bits/(Pixel*Frame)                       : 0.345
    Stream size                              : 1.18 GiB (81%)
    Writing library                          : XviD 1.2.1 (UTC 2008-12-04)

    Audio
    ID                                       : 1
    Format                                   : AC-3
    Format/Info                              : Audio Coding 3
    Mode extension                           : CM (complete main)
    Codec ID                                 : 2000
    Duration                                 : 1h 29mn
    Bit rate mode                            : Constant
    Bit rate                                 : 448 Kbps
    Channel(s)                               : 6 channels
    Channel positions                        : Front: L C R, Side: L R, LFE
    Sampling rate                            : 48.0 KHz
    Bit depth                                : 16 bits
    Compression mode                         : Lossy
    Stream size                              : 286 MiB (19%)
    Alignment                                : Split accross interleaves
    Interleave, duration                     : 40 ms (1.00 video frame)
    Interleave, preload duration             : 500 ms

    Скриншоты:

    Каталог Новинок (Фильмы-трейлеры, Игры, Сериалы, Мультфильмы)

    © Оформление by Raven
    pb.wtf



  • Скачать Педаль до упора через торрент http://i64.fastpic.ru/big/2014/1130/c9/f7efbd67038ceb7d767cd5afff20a0c9.png Скачать фильм Педаль до упора через торрент бесплантно в хорошем качестве Описание:У Роя одна, но пламенная страсть – гонки. И как раз, когда он готовится к важному соревнованию, на горизонте появляется 14-летняя ... 10 10 7
    Торрент: Зарегистрирован [2014-11-30 16:51] · скачан: 308 раз
    Статус: T временная
    Размер: 1.74 GB
    Как cкачать? Как скачать Педаль до упора через торрент | qTorrent



    Последний раз редактировалось: Ворон (2014-11-30 16:55), всего редактировалось 1 раз

    28-11-2019 20:33  

    Отключить всю рекламу на сайте

    30-11-2014 16:56 Педаль до упора Скачать торрент  

    Доп. информация: Абсолютный лидер норвежского проката.
    Гонки «Северный Мыс» существуют на самом деле. За последние несколько лет в них приняло участие свыше 3000 автолюбителей со всей Скандинавии. Правда, в реальности никто на скорость и время не соревнуется. Цель шоу: проехать от норвежской столицы до мыса Нордкап (самая северная точка страны и, как полагают некоторые, всей Европы). В качестве подтверждения этого подвига надо собрать коллекцию чеков с заправок по пути.
    Слоганы фильма:
    Насладитесь красотами Норвегии на скорости 200 км/ч
    Самый быстрый и смешной фильм года

    Фото с премьеры фильмаpb.wtf



    30-11-2014 17:06 Педаль до упора Скачать торрент  

    думаю имеет смысл подождать проф озвучку :hmmm а может кто из авторских переводчиков озвучитpb.wtf



    02-12-2014 12:34 Педаль до упора Скачать торрент  

    фильм отличный.очень много классных трюков,смешных моментов,
    норвежцы не перестают удивлять меня своим кино Дурацкое дело нехитрое / Kraftidioten Лиллехаммер / Lilyhammer / Сезон: 1 / Серии: 1-8 из 8 pb.wtf



    03-12-2014 18:36 Педаль до упора Скачать торрент  

    Отличный фильмец.pb.wtf



    08-12-2014 03:58 Педаль до упора Скачать торрент  

    фильмец замечательный-посмотрел с огромным удовольствиемpb.wtf



      Дорогой пользователь! Огромная просьба, поблагодарите релизера, оцените раздачу и оставьте свои комментарий, если Вы скачали Педаль до упора через торрент бесплатно! Внесите свою лепту в развитие PiratBit!
      Комментировать посты могут только пользователи прошедшие не сложную регистрацию
      Показать сообщения:    

      Педаль до упора через торрент
      Скачать бесплатно Педаль до упора
      Педаль до упора скачать торрент
      Педаль до упора смотреть онлайн
      Cкачать фильм Педаль до упора бесплатно
      Педаль до упора скачать торрент в хорошем качестве
      Педаль до упора смотреть онлайн бесплатно в хорошем качестве


      Вы не можете начинать темы
      Вы не можете отвечать на сообщения
      Вы не можете редактировать свои сообщения
      Вы не можете удалять свои сообщения
      Вы не можете голосовать в опросах
      Вы не можете прикреплять файлы к сообщениям
      Вы можете скачивать файлы