MEGA SALE -75% Borderlands 3 Super Deluxe всего за 550р. 180 руб. (супер цена). Внимание количество ограничено!!!

iTunes

1+1

iTunes

мы

iTunes

1

iTunes

Чернобыль

iTunes

Ральф против интернета

Лицензия

ПШазам

Лицензия

Игра престолов

Лицензия

30
pack

ВАЖНО

!!Акция!!

Alien_RageХит недели

RePack

Resident Evil 21

ИГРА 18+

pack

RePack

Metro:Exodus

!!Акция!!

Alien_Rage

RePack

fifa19

RePack

Assassins Creed: Odyssey

RePack

NEED FOR SPEED™ PAYBACK

3 сезон

9 сезон

Бесстыжие 9 сезон

Все сериалы

все сериалы на PB.wtf

RePack

FAR CRY 5
Ребята, катастрофически не хватает 1900р. для оплаты серверов за АВГУСТ (всвязи с блокировками трафик упал в 3 раза), 1-2р., выручайте.
  

Крадущийся тигр, затаившийся дракон / Wo hu cang long (Энг Ли) [2000, боевик, драма, мелодрама, BDRip] MVO + AVO (Ю. Живов) pb.wtf

Крадущийся тигр, затаившийся дракон через торрент pb.wtf

Размер: 2.18 GB | Добавлен: 4 года 10 мес. назад | Торрент скачан:85 раз
Скачать  

01-12-2014 11:33 Крадущийся тигр, затаившийся дракон Скачать торрент  

Крадущийся тигр, затаившийся дракон / Wo hu cang long


Год выпуска: 2000
Страна: Тайвань , Гонконг , США , Китай
Жанр: боевик, драма, мелодрама
Продолжительность: 02:00:14
Перевод: Профессиональный (многоголосый закадровый)

Режиссер: Энг Ли
Сценарий: Хуи-Линг Уэнг, Джеймс Шеймус, Куо Юнг Тсаи
Продюсер: Энг Ли, По Чу Чуй, Дун Пин
Оператор: Питер Пау
Композитор : Тань Дунь
Художник: Тимми Йип, Жан-Кво Ванг, Эдди Вонг
Монтаж: Тим Скуайрес

В ролях: Чоу Юнь-Фат / Chow Yun-Fat (в титрах: Chow Yun Fat) (Master Li Mu Bai), Мишель Йео / Michelle Yeoh (Yu Shu Lien), Чжан Цзыи / Zhang Ziyi (в титрах: Zhang Ziyi) (Jen Yu (Mandarin version) / Jiao Long (English dubbed version) ), Чан Чэнь / Chang Chen (Lo «Dark Cloud» / Luo Xiao Hu), Сихун Лун / Sihung Lung (Sir Te), Пеи-пеи Ченг / Pei-pei Cheng (в титрах: Cheng Pei-Pei) (Jade Fox), Фа Зенг Ли / Fa Zeng Li (Governor Yu), Сянь Гао / Xian Gao (Bo)


Описание: Легендарный мастер боевых искусств Ли Мубай отправляется на поиски магического меча зеленой стали, похищенного тайными злоумышленниками. Впереди его ждет зловещая фигура давнего противника, наемного убийцы, который после долгого отсутствия снова вернулся на тропу войны…

Бюджет: $17 000 000
Сборы в США: $128 078 872
Сборы в мире: $213 525 736
Зрители: США 23.7 млн , Великобритания 2.14 млн , Франция 1.74 млн
Премьера (мир): 16 мая 2000
Премьера (РФ): 19 апреля 2001, «Каскад»
Релиз на DVD: 20 июля 2001, «Columbia/Sony»
Релиз на Blu-Ray: 15 октября 2009, «Columbia/Sony»
Рейтинг MPAA: Детям до 13 лет просмотр не желателен

Качество: BDRip
Формат: AVI
Видео кодек: XviD
Аудио кодек: AC3
Видео: 720x304 (2.35:1), 23.976 fps, XviD, 1 815 Kbps
Аудио: Аудио #1: AC3, 384 Kbps, 48.0 KHz, 6 ch Многоголосый закадровый
Аудио #2: AC3, 384 Kbps, 48.0 KHz, 6 ch Авторский закадровый (Ю. Живов)
· Китайское название фильма является идиоматическим выражением, наиболее точным смысловым переводом на русский которого было бы «Тихий омут» (в тихом омуте черти водятся).

· Для тех, кто знаком с китайскими иероглифами, связь между названием фильма и сюжетом наглядно очевидна: в имени Джен есть слово «дракон», в то время как Ло — «тигр».

Код:

General
Complete name                    : Kraduschijsya.tigr.zataivshijsya.drakon.2000.DUAL.BDRip.XviD.AC3..avi
Format                           : AVI
Format/Info                      : Audio Video Interleave
Format profile                   : OpenDML
File size                        : 2.18 GiB
Duration                         : 2h 0mn
Overall bit rate                 : 2 600 Kbps
Movie name                       : Kraduchijsya.tigr.zataivshijsya,drakon.2000.DUAL.BDRip.XviD.AC3.
Director                         : arm2008
Writing application              : VirtualDubMod 1.5.10.2 (build 2542/release)
Comment                          : 16.02.12

Video
ID                               : 0
Format                           : MPEG-4 Visual
Format profile                   : Advanced Simple@L5
Format settings, BVOP            : Yes
Format settings, QPel            : No
Format settings, GMC             : No warppoints
Format settings, Matrix          : Custom
Codec ID                         : XVID
Codec ID/Hint                    : XviD
Duration                         : 2h 0mn
Bit rate                         : 1 815 Kbps
Width                            : 720 pixels
Height                           : 304 pixels
Display aspect ratio             : 2.35:1
Frame rate                       : 23.976 fps
Color space                      : YUV
Chroma subsampling               : 4:2:0
Bit depth                        : 8 bits
Scan type                        : Progressive
Bits/(Pixel*Frame)               : 0.346
Stream size                      : 1.52 GiB (70%)
Writing library                  : XviD 65

Audio #1
ID                               : 1
Format                           : AC-3
Format/Info                      : Audio Coding 3
Mode extension                   : CM (complete main)
Codec ID                         : 2000
Duration                         : 2h 0mn
Bit rate mode                    : Constant
Bit rate                         : 384 Kbps
Channel(s)                       : 6 channels
Channel positions                : Front: L C R, Side: L R, LFE
Sampling rate                    : 48.0 KHz
Bit depth                        : 16 bits
Stream size                      : 330 MiB (15%)
Alignment                        : Split accross interleaves
Interleave, duration             : 42 ms (1.00 video frame)
Interleave, preload duration     : 500 ms

Audio #2
ID                               : 2
Format                           : AC-3
Format/Info                      : Audio Coding 3
Mode extension                   : CM (complete main)
Codec ID                         : 2000
Duration                         : 2h 0mn
Bit rate mode                    : Constant
Bit rate                         : 384 Kbps
Channel(s)                       : 6 channels
Channel positions                : Front: L C R, Side: L R, LFE
Sampling rate                    : 48.0 KHz
Bit depth                        : 16 bits
Stream size                      : 330 MiB (15%)
Alignment                        : Split accross interleaves
Interleave, duration             : 42 ms (1.00 video frame)
Interleave, preload duration     : 500 ms





pb.wtf



Скачать Крадущийся тигр, затаившийся дракон через торрент http://i68.fastpic.ru/big/2014/1201/a1/b2168ee490981dd995cc15b5222920a1.jpg Скачать фильм Крадущийся тигр, затаившийся дракон через торрент бесплантно в хорошем качестве Описание: Легендарный мастер боевых искусств Ли Мубай отправляется на поиски магического меча зеленой стали, похищенного тайными ... 10 10 6
Торрент: Зарегистрирован [2014-12-01 11:33] · скачан: 85 раз
Статус: √ проверено
Размер: 2.18 GB
Как cкачать? Как скачать Крадущийся тигр, затаившийся дракон через торрент | qTorrent

% Раздел Тема Автор DL S | L
Ultra HD (UHD: 2K, 4K, 8K) — видео сверхвысокой чёткости [ 53.54 GB ] Крадущийся тигр затаившийся дракон / Wo hu cang long [2000 UHD BDRemux 2160p] MVO + AVO [] sheker187 Скачать
1 | 0
Азиатские фильмы [ 2.91 GB ] Крадущийся тигр затаившийся дракон / Wo hu cang long [2000 BDRip-AVC ] Russian Mafia Скачать
1 | 0
Фильмы (Blu-ray, BD-Remux, HDDVD) [ 32.12 GB ] Крадущийся тигр затаившийся дракон / Wo hu cang long [2000 Blu-ray CEE] MVO Russian Mafia Скачать
1 | 1


>> Регистрируемся здесь <<






Отзывы и комментарии о схеме читаем и пишем здесь: ---> Отзывы и комментарии о схеме

Новые благодарочки в телеграм довольных пользователей:
скриншот   скриншот   скриншот   скриншот   скриншот
    Дорогой пользователь! Огромная просьба, поблагодарите релизера, оцените раздачу и оставьте свои комментарий, если Вы скачали Крадущийся тигр, затаившийся дракон через торрент бесплатно! Внесите свою лепту в развитие PiratBit!
    Комментировать посты могут только пользователи прошедшие не сложную регистрацию
    Показать сообщения:    

    Крадущийся тигр, затаившийся дракон через торрент
    Скачать бесплатно Крадущийся тигр, затаившийся дракон
    Крадущийся тигр, затаившийся дракон скачать торрент
    Крадущийся тигр, затаившийся дракон смотреть онлайн
    Cкачать фильм Крадущийся тигр, затаившийся дракон бесплатно
    Крадущийся тигр, затаившийся дракон скачать торрент в хорошем качестве
    Крадущийся тигр, затаившийся дракон смотреть онлайн бесплатно в хорошем качестве


    Вы не можете начинать темы
    Вы не можете отвечать на сообщения
    Вы не можете редактировать свои сообщения
    Вы не можете удалять свои сообщения
    Вы не можете голосовать в опросах
    Вы не можете прикреплять файлы к сообщениям
    Вы можете скачивать файлы