MEGA SALE -50% FORZA HORIZON 4 ULTIMATE+ВСЕ DLC+ОНЛАЙН всего за 599р. 299 руб. (супер цена). Внимание количество ограничено!!!

iTunes

1+1

iTunes

мы

iTunes

1

iTunes

Чернобыль

iTunes

Ральф против интернета

Лицензия

ПШазам

Лицензия

Игра престолов

Лицензия

30
pack

ВАЖНО

!!Акция!!

Alien_RageХит недели

RePack

Resident Evil 21

ИГРА 18+

pack

RePack

Metro:Exodus

!!Акция!!

Alien_Rage

RePack

fifa19

RePack

Assassins Creed: Odyssey

RePack

NEED FOR SPEED™ PAYBACK

3 сезон

9 сезон

Бесстыжие 9 сезон

Все сериалы

все сериалы на PB.wtf

RePack

FAR CRY 5
Ребята, катастрофически не хватает 7730р. для оплаты серверов за АВГУСТ (всвязи с блокировками трафик упал в 3 раза), 1-2р., выручайте.
  

Сплетня / Gossip (Дэвис Гуггенхайм) [2000, триллер, драма, детектив, HDTVRip] DUB pb.wtf

Сплетня через торрент pb.wtf

Размер: 1.45 GB | Добавлен: 4 года 9 мес. назад | Торрент скачан:59 раз
Скачать  

01-12-2014 11:50 Сплетня Скачать торрент  

Сплетня / Gossip
«If it were a game, would you play it? If it were a drug, would you be addicted? If it were a weapon, would you pull the trigger?»


Год выпуска: 2000
Страна: США
Жанр: триллер, драма, детектив
Продолжительность: 01:30:19
Перевод: Профессиональный (дублированный)

Режиссер: Дэвис Гуггенхайм
Сценарий: Грегори Пуарье, Тереза Ребек
Продюсер: Джеффри Сильвер, Брюс Берман, Джон М. Экерт
Оператор: Анджей Бартковяк
Композитор : Грэм Ревелл
Художник: Дэвид Николс, Власта Свобода, Луиз Мингенбах
Монтаж: Джей Кэссиди

В ролях: Джеймс Марсден / James Marsden (Derrick Webb), Лина Хиди / Lena Headey (Cathy Jones), Норман Ридус / Norman Reedus (Travis), Кейт Хадсон / Kate Hudson (Naomi Preston), Джошуа Джексон / Joshua Jackson (Beau Edson), Эрик Богосян / Eric Bogosian (Professor Goodwin), Эдвард Джеймс Олмос / Edward James Olmos (Detective Curtis), Шэрон Лоуренс / Sharon Lawrence (Detective Kelly)


Описание: Осторожно: эта сплетня опасна для жизни! Группа студентов журналистики в университетском городке после лекции о желтой прессе решает проверить, как распространяется сплетня, и какими подробностями она может обрасти. С этой целью, после вечеринки, где известная красавица напилась до потери сознания, они пускают слух, что она переспала с одним из участников попойки. Сплетня быстро обрастает подробностями и распространяется по городку.Девушка, о которой она была запущена, считает, что ее изнасиловали, и подает заявление в полицию. Парня, с которым она, якобы, переспала, арестовывают. Друзья уже не рады своей затее и пытаются объяснить затронутым лицам, что все это был розыгрыш с учебной целью, но им уже никто не верит…

Бюджет: $24 000 000
Сборы в США: $5 108 820
Сборы в мире: $12 591 270
Зрители: США 928.9 тыс. , Испания 267.7 тыс. , Великобритания 194.5 тыс.
Премьера (мир): 18 апреля 2000
Релиз на DVD: 25 октября 2001, «Мост-Видео»
Рейтинг MPAA: Лицам до 17 лет обязательно присутствие взрослого

Качество: HDTVRip
Формат: AVI
Видео кодек: XviD
Аудио кодек: AC3
Видео: 720x400 (16:9), 23.976 fps, XviD, 1 907 Kbps
Аудио: Аудио #1: AC3, 384 Kbps, 48.0 KHz, 6 ch
· Джеймс Марсден исполнил одну из песен к фильму.

· Университет, который посещают студенты, использовался также еще для нескольких фильмов, включая «Городские легенды» (1998) и «Черепа» (2000). По совпадению, во всех трех фильмах главную роль играл Джошуа Джексон.

Код:

General
Complete name                    : Spletnya_HDTVRip.avi
Format                           : AVI
Format/Info                      : Audio Video Interleave
File size                        : 1.45 GiB
Duration                         : 1h 30mn
Overall bit rate                 : 2 300 Kbps
Writing application              : VirtualDubMod 1.5.10.2 (build 2540/release)
Writing library                  : VirtualDubMod build 2540/release

Video
ID                               : 0
Format                           : MPEG-4 Visual
Format profile                   : Advanced Simple@L5
Format settings, BVOP            : Yes
Format settings, QPel            : No
Format settings, GMC             : No warppoints
Format settings, Matrix          : Custom
Codec ID                         : XVID
Codec ID/Hint                    : XviD
Duration                         : 1h 30mn
Bit rate                         : 1 907 Kbps
Width                            : 720 pixels
Height                           : 400 pixels
Display aspect ratio             : 16:9
Frame rate                       : 23.976 fps
Color space                      : YUV
Chroma subsampling               : 4:2:0
Bit depth                        : 8 bits
Scan type                        : Progressive
Bits/(Pixel*Frame)               : 0.276
Stream size                      : 1.20 GiB (83%)
Writing library                  : XviD 1.2.1 (UTC 2008-12-04)

Audio
ID                               : 1
Format                           : AC-3
Format/Info                      : Audio Coding 3
Mode extension                   : CM (complete main)
Codec ID                         : 2000
Duration                         : 1h 30mn
Bit rate mode                    : Constant
Bit rate                         : 384 Kbps
Channel(s)                       : 6 channels
Channel positions                : Front: L C R, Side: L R, LFE
Sampling rate                    : 48.0 KHz
Bit depth                        : 16 bits
Stream size                      : 248 MiB (17%)
Alignment                        : Split accross interleaves
Interleave, duration             : 42 ms (1.00 video frame)
Interleave, preload duration     : 500 ms





pb.wtf



Скачать Сплетня через торрент http://i64.fastpic.ru/big/2014/1201/f5/41a284d56e9f6ba4c29d5bea330994f5.jpg Скачать фильм Сплетня через торрент бесплантно в хорошем качестве Описание: Осторожно: эта сплетня опасна для жизни! Группа студентов журналистики в университетском городке после лекции о желтой прессе ... 10 10 4
Торрент: Зарегистрирован [2014-12-01 11:50] · скачан: 59 раз
Статус: √ проверено
Размер: 1.45 GB
Как cкачать? Как скачать Сплетня через торрент | qTorrent


>> Регистрируемся здесь <<






Отзывы и комментарии о схеме читаем и пишем здесь: ---> Отзывы и комментарии о схеме

Новые благодарочки в телеграм довольных пользователей:
скриншот   скриншот   скриншот   скриншот   скриншот

01-12-2014 13:46 Сплетня Скачать торрент  

Смотрел, прикольный фильмец!pb.wtf



    Дорогой пользователь! Огромная просьба, поблагодарите релизера, оцените раздачу и оставьте свои комментарий, если Вы скачали Сплетня через торрент бесплатно! Внесите свою лепту в развитие PiratBit!
    Комментировать посты могут только пользователи прошедшие не сложную регистрацию
    Показать сообщения:    

    Сплетня через торрент
    Скачать бесплатно Сплетня
    Сплетня скачать торрент
    Сплетня смотреть онлайн
    Cкачать фильм Сплетня бесплатно
    Сплетня скачать торрент в хорошем качестве
    Сплетня смотреть онлайн бесплатно в хорошем качестве


    Вы не можете начинать темы
    Вы не можете отвечать на сообщения
    Вы не можете редактировать свои сообщения
    Вы не можете удалять свои сообщения
    Вы не можете голосовать в опросах
    Вы не можете прикреплять файлы к сообщениям
    Вы можете скачивать файлы