Ссылка на приватное зеркало всего за 1$. Внимание количество ограничено!!!

iTunes

iTunes

iTunes

1

iTunes

iTunes

iTunes

iTunes

iTunes

30
pack

$ от Little Big

ВАЖНО

!!Акция!!

Alien_RageХит недели

RePack

Resident Evil 21

ИГРА 18+

pack

RePack

jed

!!Акция!!

Alien_Rage

RePack

fifa19

RePack

Assassins Creed: Odyssey

RePack

NEED FOR SPEED™ PAYBACK

4 сезон

9 сезон

Бесстыжие 9 сезон

Все сериалы

все сериалы на PB.wtf

RePack

FAR CRY 5
  

Достань меня, если сможешь / Reach Me (Джон Херцфелд / John Herzfeld) [2014, США, драма, WEB-DL 720p, Любительский (одноголосый) [Pashaup] pb.wtf

Достань меня, если сможешь через торрент pb.wtf

Размер: 3.12 GB | Добавлен: 5 лет 7 мес. назад | Торрент скачан:50 раз
Скачать  

02-12-2014 01:30 Достань меня, если сможешь Скачать торрент  

Достань меня, если сможешь / Reach Me
«There's no stopping someone who will stop at nothing!»


  • Год выпуска: 2014
  • Страна: США
  • Жанр: драма
  • Продолжительность: 01:32:13
  • Перевод: Любительский (одноголосый) [Pashaup]- перевод на русский язык [Janetta]
  • Субтитры: русские, английские
  • Режиссер: Джон Херцфелд / John Herzfeld
  • В ролях:

    Лорен Кохэн (Kate), Кира Седжвик (Colette), Томас Джейн (Wolfie), Кевин Коннолли (Roger), Том Сайзмор (Frank), Нелли (E-Ruption), Омари Хардвик (Thumper), Дэвид О’Хара (Dominic), Келси Грэммер (Angelo AldoBrandini), Терри Крюс (Wilson), Кэри Элвис (Kersey), Том Беренджер (Teddy)

  • Описание:
    Загадочный автор, давно ушедший в подполье, написал великолепную мотивирующую книгу "Достань меня, если сможешь", в одночасье ставшую хитом продаж. Когда-то давно он был футбольным тренером, помогая своим воспитанникам духовно настраиваться на победу.
    Теперь он самостоятельно издал одну из популярнейших книг под псевдонимом Тэдди Рэймонд, став занимательной загадкой для общества. О нём нет никакой информации, а его произведение "Достань меня, если сможешь" продолжает завоёвывать мир. Судьбы прочитавших меняются кардинальным образом.
    Полицейский-маньяк, помешанный на вестернах, понимает, что ему необходимо остановиться, но только книга способна ему помочь. Бывшая заключённая, недавно освободившаяся после нескольких лет за поджёг увидела в этой литературе смысл жизни.
    Журналист с редактором, надеявшиеся раскрыть загадку успешного писателя, также найдут нечто новое. А ведь это лишь малая толика тех, чьи судьбы изменятся благодаря "Достань меня, если сможешь".
  • Рейтинг:



  • Качество: WEB-DL 720p
  • Формат: :MKV
  • Видео кодек: AVC
  • Аудио кодек: AC3
  • Видео: 1280x528 (2.40:1), 3916 kbps, 23,976 fps, 0,242 bpp
  • Аудио №1: русский / 5.1 / 48 kHz / 448 kbps / 16 bit
  • Аудио №2: английский / 5.1 / 48 kHz / 384 kbps / 16 bit
  • Релиз от: GEKADOL
    [URL=] [/URL]

    Код:

    General
    Unique ID                                : 184644544963154078886984524604208660397 (0x8AE93EEE23DCDA0FBDCB967805553FAD)
    Complete name                            : I:\Reach.Me.2014.WEB-DL.720p.CINEMANIA.mkv
    Format                                   : Matroska
    Format version                           : Version 4 / Version 2
    File size                                : 3.12 GiB
    Duration                                 : 1h 32mn
    Overall bit rate                         : 4 845 Kbps
    Movie name                               : Release Group CINEMANIA
    Encoded date                             : UTC 2014-12-01 17:44:48
    Writing application                      : mkvmerge v7.3.0 ('Nouages') 64bit built on Oct 22 2014 18:53:34
    Writing library                          : libebml v1.3.0 + libmatroska v1.4.1

    Video
    ID                                       : 1
    Format                                   : AVC
    Format/Info                              : Advanced Video Codec
    Format profile                           : Main@L3.1
    Format settings, CABAC                   : No
    Format settings, ReFrames                : 2 frames
    Codec ID                                 : V_MPEG4/ISO/AVC
    Duration                                 : 1h 32mn
    Bit rate                                 : 3 916 Kbps
    Width                                    : 1 280 pixels
    Height                                   : 528 pixels
    Display aspect ratio                     : 2.40:1
    Frame rate                               : 23.976 fps
    Color space                              : YUV
    Chroma subsampling                       : 4:2:0
    Bit depth                                : 8 bits
    Scan type                                : Progressive
    Bits/(Pixel*Frame)                       : 0.242
    Stream size                              : 2.52 GiB (81%)
    Title                                    : Release Group CINEMANIA
    Language                                 : English
    Default                                  : Yes
    Forced                                   : No
    Color primaries                          : BT.709-5, BT.1361, IEC 61966-2-4, SMPTE RP177
    Transfer characteristics                 : BT.709-5, BT.1361
    Matrix coefficients                      : BT.709-5, BT.1361, IEC 61966-2-4 709, SMPTE RP177

    Audio #1
    ID                                       : 2
    Format                                   : AC-3
    Format/Info                              : Audio Coding 3
    Mode extension                           : CM (complete main)
    Codec ID                                 : A_AC3
    Duration                                 : 1h 32mn
    Bit rate mode                            : Constant
    Bit rate                                 : 448 Kbps
    Channel(s)                               : 6 channels
    Channel positions                        : Front: L C R, Side: L R, LFE
    Sampling rate                            : 48.0 KHz
    Bit depth                                : 16 bits
    Compression mode                         : Lossy
    Stream size                              : 296 MiB (9%)
    Title                                    : PashaUp
    Language                                 : Russian
    Default                                  : Yes
    Forced                                   : Yes

    Audio #2
    ID                                       : 3
    Format                                   : AC-3
    Format/Info                              : Audio Coding 3
    Mode extension                           : CM (complete main)
    Codec ID                                 : A_AC3
    Duration                                 : 1h 32mn
    Bit rate mode                            : Constant
    Bit rate                                 : 384 Kbps
    Channel(s)                               : 6 channels
    Channel positions                        : Front: L C R, Side: L R, LFE
    Sampling rate                            : 48.0 KHz
    Bit depth                                : 16 bits
    Compression mode                         : Lossy
    Stream size                              : 253 MiB (8%)
    Language                                 : English
    Default                                  : No
    Forced                                   : No

    Text #1
    ID                                       : 4
    Format                                   : UTF-8
    Codec ID                                 : S_TEXT/UTF8
    Codec ID/Info                            : UTF-8 Plain Text
    Language                                 : Russian
    Default                                  : Yes
    Forced                                   : Yes

    Text #2
    ID                                       : 5
    Format                                   : UTF-8
    Codec ID                                 : S_TEXT/UTF8
    Codec ID/Info                            : UTF-8 Plain Text
    Language                                 : English
    Default                                  : No
    Forced                                   : No

    Menu
    00:00:00.000                             : en:1
    00:05:07.000                             : en:2
    00:12:59.000                             : en:3
    00:16:22.000                             : en:4
    00:23:26.000                             : en:5
    00:27:59.000                             : en:6
    00:34:52.000                             : en:7
    00:40:17.000                             : en:8
    00:46:15.000                             : en:9
    00:52:39.000                             : en:10
    00:59:42.000                             : en:11
    01:03:34.000                             : en:12
    01:09:09.000                             : en:13
    01:16:19.000                             : en:14
    01:19:33.000                             : en:15
    01:24:15.000                             : en:16


    Скриншоты:



    pb.wtf



  • Скачать Достань меня, если сможешь через торрент http://pic.kartinco.top/images/8/puwwb.jpg Скачать фильм Достань меня, если сможешь через торрент бесплантно в хорошем качестве Описание: Загадочный автор, давно ушедший в подполье, написал великолепную мотивирующую книгу "Достань меня, если сможешь", в одночасье ... 10 10 1
    Торрент: Зарегистрирован [2014-12-02 01:30] · скачан: 50 раз
    Статус: T временная
    Размер: 3.12 GB
    Как cкачать? Как скачать Достань меня, если сможешь через торрент | qTorrent

    % Раздел Тема Автор DL S | L
    Фильмы с авторской озвучкой [ 4.59 GB ] Достань меня если сможешь / Reach Me [2014 BDRip 1080p HEVC AVO+DVO+VO] Мичман37 Скачать
    1 | 0
    Фильмы с авторской озвучкой [ 5 GB ] Достань меня если сможешь / Reach Me [2014 BDRip 720p] AVO potroks Скачать
    1 | 0
    R.G. Resident & PiratVoice - Фильмы, Видео [ 7.73 GB ] Достань меня если сможешь / Reach Me [2014 BDRip 1080p Авторский А.Дольский] R.G.Resident schultz Скачать
    1 | 0
    R.G. Resident & PiratVoice - Фильмы, Видео [ 1.46 GB ] Достань меня если сможешь / Reach Me [2014 BDRip-AVC Авторский А.Дольский] R.G.Resident schultz Скачать
    1 | 0
    T Фильмы (Blu-ray, BD-Remux, HDDVD) [ 18.93 GB ] Достань меня если сможешь / Reach Me [2014 BDRemux Любительский ] Ворон Скачать
    1 | 0
    T Фильмы 2014 [DVDrip, WEB-DLRip, HDrip] [ 1.41 GB ] Достань меня если сможешь / Reach Me [2014 HDRip Любительский ] _KaisiK_ Скачать
    1 | 0
    T Фильмы 2014 [DVDrip, WEB-DLRip, HDrip] [ 1.45 GB ] Достань меня если сможешь / Reach Me [2014 WEB-DLRip DVO Ворон Скачать
    1 | 0

    28-11-2019 20:33  

    Отключить всю рекламу на сайте

      Дорогой пользователь! Огромная просьба, поблагодарите релизера, оцените раздачу и оставьте свои комментарий, если Вы скачали Достань меня, если сможешь через торрент бесплатно! Внесите свою лепту в развитие PiratBit!
      Комментировать посты могут только пользователи прошедшие не сложную регистрацию
      Показать сообщения:    

      Достань меня, если сможешь через торрент
      Скачать бесплатно Достань меня, если сможешь
      Достань меня, если сможешь скачать торрент
      Достань меня, если сможешь смотреть онлайн
      Cкачать фильм Достань меня, если сможешь бесплатно
      Достань меня, если сможешь скачать торрент в хорошем качестве
      Достань меня, если сможешь смотреть онлайн бесплатно в хорошем качестве


      Вы не можете начинать темы
      Вы не можете отвечать на сообщения
      Вы не можете редактировать свои сообщения
      Вы не можете удалять свои сообщения
      Вы не можете голосовать в опросах
      Вы не можете прикреплять файлы к сообщениям
      Вы можете скачивать файлы