1 сезон

1 сезон

iTunes

1

КиноПоиск HD

Кинопоиск HD

iTunes

13

1 сезон

RePack

30

Новинка

ВАЖНО

ИГРА 18+

pack

RePack

MK11
pack

Легкие деньги

RePack

jed

RePack

fifa19

RePack

RDR2

RePack

NEED FOR SPEED™ PAYBACK

4 сезон

9 сезон

Бесстыжие 9 сезон

Все сериалы

все сериалы на PB.wtf

RePack

FAR CRY 5
  
Magnet ссылка

Мокасины Маниту / Der Schuh des Manitu (Михаэль Хербиг) [2001, комедия, вестерн, BDRip] DUB pb.wtf

Мокасины Маниту через торрент pb.wtf

Размер: 1.37 GB | Добавлен: 6 лет 4 мес. назад | Торрент скачан:133 раза
Скачать  

02-12-2014 06:43 Мокасины Маниту Скачать торрент  

Мокасины Маниту / Der Schuh des Manitu
«Die neue Komodie von Bully»


Год выпуска: 2001
Страна: Германия
Жанр: комедия, вестерн
Продолжительность: 01:24:07
Перевод: Профессиональный (дублированный)

Режиссер: Михаэль Хербиг
Сценарий: Михаэль Хербиг, Альфонс Бидерманн, Рик Каваниан
Продюсер: Бернд Айхингер, Михаэль Вольф, Михаэль Хербиг
Оператор: Эдди Шнайдермайер, Штефан Шух
Композитор : Ральф Венгенмайр
Художник: Клаус Коттманн, Сабина Дайгелер, Коринна Дрейер-Вицци
Монтаж: Александр Диттнер

В ролях: Михаэль Хербиг / Michael Herbig (в титрах: Michael Bully Herbig) (Winnetouch / Grauer Star (extended edition)), Кристиан Трамиц / Christian Tramitz (Ranger), Скай Дюмон / Sky Dumont (в титрах: Sky Du Mont) (Santa Maria), Мари Баумер / Marie Bäumer (Uschi), Хильми Сёзер / Hilmi Sözer (Hombre), Рик Каваниан / Rick Kavanian (Dimitri), Тим Вильде / Tim Wilde (John), Зиги Терпоортен / Sigi Terpoorten (Jim)


Описание: Подлинная и леденящая душу история про кровных братьев Абахачи и Рейнджера, про славные племена апачей и шошонов, про очень-очень плохого белого парня Санта Марию, про голубого краснокожего Виннетуха, про великого вождя Хитрого Слизняка и его безвременно погибшего сына Трусливого Кролика, про несметные сокровища, завещанные Абахачи его дедушкой по имени Бешеная Корова, про то, как старый хрен учил любимого внука делиться и Абахачи честно разделил карту с указанием клада на четыре части, но был настолько пьян, что никак не может вспомнить, куда девал остальные три…

Бюджет: DEM 7 000 000
Сборы в мире: $64 300 000
Сборы в России: $230 000
Зрители: Германия 11.7 млн , Австрия 2.07 млн , Швейцария 362.8 тыс.
Премьера (мир): 13 июля 2001
Премьера (РФ): 18 июля 2002
Релиз на DVD: 14 января 2010, «CP-Digital»

Качество: BDRip
Формат: AVI
Видео кодек: XviD
Аудио кодек: AC3
Видео: 720x304 (2.35:1), 24.000 fps, XviD, 1 542 Kbps
Аудио: Аудио #1: AC3, 384 Kbps, 48.0 KHz, 6 ch Дублированный
Аудио #2: AC3, 384 Kbps, 48.0 KHz, 6 ch Оригинал
· Самый успешный немецкий фильм в национальном кинопрокате. Кассовые сборы в немецком прокате составили 64 885 485 евро (11 719 160 проданных билетов).

· Телевизионная премьера картины, прошедшая на немецком телеканале PRO 7 получила наибольший рейтинг в истории телеканала. Фильм посмотрело 12,2 миллиона зрителей или 32% от всей аудитории канала.

· Сам фильм по существу это пародия на романы немецкого писателя Карла Мая, посвящённые вождю апачей Виннету и поставленные по ним фильмы, которые очень популярны в Германии. Персонаж Карл М., которого герои встречают в баре, это дополнительная отсылка к известному писателю.

· Вся сцена в пещере была впоследствии озвучена заново из-за просачивавшихся уличных шумов.

· Кобыла Абахачи по имени Жаклин на самом деле жеребец.

· Когда вождь шошонов Хитрый Слизняк просит откопать томагавк войны, один из его помощников говорит ему на вымышленном «диалекте» апачей, что томагавк сломался из-за того, что они купили по дешёвке низкого качества. Последнее слово, которое он говорит на этом «диалекте» это «Чибо». В реальности «Чибо» это популярная в Германии сеть магазинов, которая известна продажами повседневных товаров по доступным ценам.

· Когда Абахачи показывает Рейнджеру фотографии из своего прошлого, он обращает внимание на одну и говорит, что это его отец. На самом деле он показывает фотографию французского актёра Пьера Брайса, сыгравшего главную роль Виннету в серии немецких фильмов, вышедших в 60-х годах. При этом Абахачи говорит Рейнджеру, что его отец мог говорить по-французски, и никто не знал откуда.

· В одной из сцен Абахачи играет популярную мелодию из фильма «Третий человек» (1949). Пауль Хёрбигер, дедушка Кристиана Трамица, который сыграл Рейнджера в «Мокасинах Маниту», исполнил одну из ролей в «Третьем человеке».

· До выхода «Мокасин Маниту» в популярном пародийном немецком сериале «Bullyparade» (1997-2002) Михаэля Хербига два ведущих персонажа в скетчах носили имена Виннету и Олд Шеттерхэнд, как в романах Карла Мая. После появления фильма на экранах они внезапно вернули себе свои «настоящие» имена Абахачи и Рейнджер и в телесериале.

· Специальная версия фильма имеет хронометраж 100 минут.

Код:

General
Complete name                    : Mokasiny.Manitu.2001.XviD.BDRip..avi
Format                           : AVI
Format/Info                      : Audio Video Interleave
File size                        : 1.37 GiB
Duration                         : 1h 24mn
Overall bit rate                 : 2 324 Kbps
Writing application              : VirtualDubModRus 1.5.10.2 (build 2542/release)
Writing library                  : VirtualDubMod build 2542/release

Video
ID                               : 0
Format                           : MPEG-4 Visual
Format profile                   : Advanced Simple@L5
Format settings, BVOP            : Yes
Format settings, QPel            : No
Format settings, GMC             : No warppoints
Format settings, Matrix          : Default (MPEG)
Codec ID                         : XVID
Codec ID/Hint                    : XviD
Duration                         : 1h 24mn
Bit rate                         : 1 542 Kbps
Width                            : 720 pixels
Height                           : 304 pixels
Display aspect ratio             : 2.35:1
Frame rate                       : 24.000 fps
Color space                      : YUV
Chroma subsampling               : 4:2:0
Bit depth                        : 8 bits
Scan type                        : Progressive
Bits/(Pixel*Frame)               : 0.294
Stream size                      : 928 MiB (66%)
Writing library                  : XviD 1.2.1 (UTC 2008-12-04)

Audio #1
ID                               : 1
Format                           : AC-3
Format/Info                      : Audio Coding 3
Mode extension                   : CM (complete main)
Codec ID                         : 2000
Duration                         : 1h 24mn
Bit rate mode                    : Constant
Bit rate                         : 384 Kbps
Channel(s)                       : 6 channels
Channel positions                : Front: L C R, Side: L R, LFE
Sampling rate                    : 48.0 KHz
Bit depth                        : 16 bits
Stream size                      : 231 MiB (17%)
Alignment                        : Split accross interleaves
Interleave, duration             : 42 ms (1.00 video frame)
Interleave, preload duration     : 500 ms

Audio #2
ID                               : 2
Format                           : AC-3
Format/Info                      : Audio Coding 3
Mode extension                   : CM (complete main)
Codec ID                         : 2000
Duration                         : 1h 24mn
Bit rate mode                    : Constant
Bit rate                         : 384 Kbps
Channel(s)                       : 6 channels
Channel positions                : Front: L C R, Side: L R, LFE
Sampling rate                    : 48.0 KHz
Bit depth                        : 16 bits
Stream size                      : 231 MiB (17%)
Alignment                        : Split accross interleaves
Interleave, duration             : 42 ms (1.00 video frame)
Interleave, preload duration     : 500 ms





pb.wtf



Скачать Мокасины Маниту через торрент http://i66.fastpic.ru/big/2014/1202/76/1bee9447b4172f5109100546262b9576.jpg Скачать фильм Мокасины Маниту через торрент бесплантно в хорошем качестве Описание: Подлинная и леденящая душу история про кровных братьев Абахачи и Рейнджера, про славные племена апачей и шошонов, про очень-очень ... 10 10 6
Торрент: Зарегистрирован [2014-12-02 06:43] · скачан: 133 раз
Статус: √ проверено
Размер: 1.37 GB
Как cкачать? Как скачать Мокасины Маниту через торрент | UTorrent

% Раздел Тема Автор DL S | L
Фильмы 2001-2005 [ 1.46 GB ] Мокасины Маниту / Der Schuh des Manitu / Manitou's Shoe [2001 BDRip-AVC] killermax2013 Скачать
3 | 0
Фильмы [HD 720p, 1080p] (Хороший звук DUB, MVO) [ 3.61 GB ] Мокасины Маниту / Der Schuh des Manitu / Manitou's Shoe [2001 BDRip 720p] killermax2013 Скачать
5 | 0

28-11-2019 20:33  

Отключить всю рекламу на сайте

02-12-2014 07:59 Мокасины Маниту Скачать торрент  

говорят уржаться можно, поглядим.
спасибо!pb.wtf



02-12-2014 14:52 Мокасины Маниту Скачать торрент  

нормально- посмотреть можно, не без плоских шуток ,но хоть без генитальных шуток.pb.wtf



    Дорогой пользователь! Огромная просьба, поблагодарите релизера, оцените раздачу и оставьте свои комментарий, если Вы скачали Мокасины Маниту через торрент бесплатно! Внесите свою лепту в развитие PiratBit!
    Комментировать посты могут только пользователи прошедшие не сложную регистрацию
    Показать сообщения:    

    Мокасины Маниту через торрент
    Скачать бесплатно Мокасины Маниту
    Мокасины Маниту скачать торрент
    Мокасины Маниту смотреть онлайн
    Cкачать фильм Мокасины Маниту бесплатно
    Мокасины Маниту скачать торрент в хорошем качестве
    Мокасины Маниту смотреть онлайн бесплатно в хорошем качестве


    Вы не можете начинать темы
    Вы не можете отвечать на сообщения
    Вы не можете редактировать свои сообщения
    Вы не можете удалять свои сообщения
    Вы не можете голосовать в опросах
    Вы не можете прикреплять файлы к сообщениям
    Вы можете скачивать файлы