1 сезон

1 сезон

iTunes

1

КиноПоиск HD

Кинопоиск HD

iTunes

13

1 сезон

RePack

30

Новинка

ВАЖНО

ИГРА 18+

pack

RePack

MK11
pack

Легкие деньги

RePack

jed

RePack

fifa19

RePack

RDR2

RePack

NEED FOR SPEED™ PAYBACK

4 сезон

9 сезон

Бесстыжие 9 сезон

Все сериалы

все сериалы на PB.wtf

RePack

FAR CRY 5
  
Magnet ссылка

Соблазнитель / Tempted (Билл Беннетт) [2001, триллер, DVDRip] MVO pb.wtf

Соблазнитель через торрент pb.wtf

Размер: 1.45 GB | Добавлен: 6 лет 4 мес. назад | Торрент скачан:68 раз
Скачать  

02-12-2014 07:13 Соблазнитель Скачать торрент  

Соблазнитель / Tempted
«I want to believe I can trust her...So I want to pay you to seduce my wife»


Год выпуска: 2001
Страна: Австралия , Франция , США
Жанр: триллер
Продолжительность: 01:31:27
Перевод: Профессиональный (многоголосый закадровый)

Режиссер: Билл Беннетт
Сценарий: Билл Беннетт
Продюсер: Билл Беннетт, Ларри Кац, Дэвид Кроунмейер
Оператор: Тони Кларк
Композитор : Дэвид Брайди
Художник: Монро Келли, Келли Керли, Эди Курцер
Монтаж: Генри Дангар

В ролях: Саффрон Берроуз / Saffron Burrows (Lilly LeBlanc), Берт Рейнолдс / Burt Reynolds (Charlie LeBlanc), Майк Старр / Mike Starr (Dot Collins), Рэнди Остин / Randy Austin (J.A.), Кайл Эрби / Kyle Erby (Carl, Construction Worker), Питер Фачинелли / Peter Facinelli (Jimmy Mulate), Кэрол Саттон / Carol Sutton (Steffie, LeBlanc's Maid), Эрик Мэбиас / Eric Mabius (Ted)


Описание: Узнав о своей неминуемой кончине, богач Чарли ЛеБлан поручает смышленому студенту Джимми за хорошее вознаграждение испытать на верность его молодую жену Лилли, чтобы решить, достойна ли она щедрого наследства.Симпатичный Джимми справляется с заданием, не подозревая, что у соблазненной Лилли есть свои тайные цели. Вскоре он понимает, что ему будет не так-то просто получить приз в смертельной игре, в которую он столь опрометчиво ввязался.
Зрители: Испания 37.1 тыс. , Италия 9 тыс.
Премьера (мир): 7 сентября 2001
Релиз на DVD: 7 декабря 2006, «Монолит»
Рейтинг MPAA: Лицам до 17 лет обязательно присутствие взрослого

Качество: DVDRip
Формат: AVI
Видео кодек: XviD
Аудио кодек: AC3
Видео: 720x384 (1.875:1), 25.000 fps, XviD, 1 623 Kbps
Аудио: Аудио #1: AC3, 192 Kbps, 48.0 KHz, 2 ch Многоголосый
Аудио #2: AC3, 448 Kbps, 48.0 KHz, 6 ch Оригинал

Код:

General
Complete name                    : Soblaznitel.2001.XviD.DVDRip..avi
Format                           : AVI
Format/Info                      : Audio Video Interleave
File size                        : 1.45 GiB
Duration                         : 1h 31mn
Overall bit rate                 : 2 277 Kbps
Writing application              : VirtualDubModRus 1.5.10.2 (build 2542/release)
Writing library                  : VirtualDubMod build 2542/release

Video
ID                               : 0
Format                           : MPEG-4 Visual
Format profile                   : Advanced Simple@L5
Format settings, BVOP            : Yes
Format settings, QPel            : No
Format settings, GMC             : No warppoints
Format settings, Matrix          : Default (MPEG)
Codec ID                         : XVID
Codec ID/Hint                    : XviD
Duration                         : 1h 31mn
Bit rate                         : 1 623 Kbps
Width                            : 720 pixels
Height                           : 384 pixels
Display aspect ratio             : 1.875
Frame rate                       : 25.000 fps
Color space                      : YUV
Chroma subsampling               : 4:2:0
Bit depth                        : 8 bits
Scan type                        : Progressive
Bits/(Pixel*Frame)               : 0.235
Stream size                      : 1.04 GiB (71%)
Writing library                  : XviD 1.2.1 (UTC 2008-12-04)

Audio #1
ID                               : 1
Format                           : AC-3
Format/Info                      : Audio Coding 3
Mode extension                   : CM (complete main)
Codec ID                         : 2000
Duration                         : 1h 31mn
Bit rate mode                    : Constant
Bit rate                         : 192 Kbps
Channel(s)                       : 2 channels
Channel positions                : Front: L R
Sampling rate                    : 48.0 KHz
Bit depth                        : 16 bits
Stream size                      : 126 MiB (8%)
Alignment                        : Split accross interleaves
Interleave, duration             : 40 ms (1.00 video frame)
Interleave, preload duration     : 500 ms

Audio #2
ID                               : 2
Format                           : AC-3
Format/Info                      : Audio Coding 3
Mode extension                   : CM (complete main)
Codec ID                         : 2000
Duration                         : 1h 31mn
Bit rate mode                    : Constant
Bit rate                         : 448 Kbps
Channel(s)                       : 6 channels
Channel positions                : Front: L C R, Side: L R, LFE
Sampling rate                    : 48.0 KHz
Bit depth                        : 16 bits
Stream size                      : 293 MiB (20%)
Alignment                        : Split accross interleaves
Interleave, duration             : 40 ms (1.00 video frame)
Interleave, preload duration     : 500 ms





pb.wtf



Скачать Соблазнитель через торрент http://i65.fastpic.ru/big/2014/1202/8e/433391e11995c8d968264ace2c7c248e.jpg Скачать фильм Соблазнитель через торрент бесплантно в хорошем качестве Описание: Узнав о своей неминуемой кончине, богач Чарли ЛеБлан поручает смышленому студенту Джимми за хорошее вознаграждение испытать на ... 10 10 4
Торрент: Зарегистрирован [2014-12-02 07:13] · скачан: 68 раз
Статус: √ проверено
Размер: 1.45 GB
Как cкачать? Как скачать Соблазнитель через торрент | UTorrent

28-11-2019 20:33  

Отключить всю рекламу на сайте

    Дорогой пользователь! Огромная просьба, поблагодарите релизера, оцените раздачу и оставьте свои комментарий, если Вы скачали Соблазнитель через торрент бесплатно! Внесите свою лепту в развитие PiratBit!
    Комментировать посты могут только пользователи прошедшие не сложную регистрацию
    Показать сообщения:    

    Соблазнитель через торрент
    Скачать бесплатно Соблазнитель
    Соблазнитель скачать торрент
    Соблазнитель смотреть онлайн
    Cкачать фильм Соблазнитель бесплатно
    Соблазнитель скачать торрент в хорошем качестве
    Соблазнитель смотреть онлайн бесплатно в хорошем качестве


    Вы не можете начинать темы
    Вы не можете отвечать на сообщения
    Вы не можете редактировать свои сообщения
    Вы не можете удалять свои сообщения
    Вы не можете голосовать в опросах
    Вы не можете прикреплять файлы к сообщениям
    Вы можете скачивать файлы