MEGA SALE -50% FORZA HORIZON 4 ULTIMATE+ВСЕ DLC+ОНЛАЙН всего за 599р. 299 руб. (супер цена). Внимание количество ограничено!!!

iTunes

1+1

iTunes

мы

iTunes

1

iTunes

Чернобыль

iTunes

Ральф против интернета

Лицензия

ПШазам

Лицензия

Игра престолов

Лицензия

30
pack

ВАЖНО

!!Акция!!

Alien_RageХит недели

RePack

Resident Evil 21

ИГРА 18+

pack

RePack

Metro:Exodus

!!Акция!!

Alien_Rage

RePack

fifa19

RePack

Assassins Creed: Odyssey

RePack

NEED FOR SPEED™ PAYBACK

3 сезон

9 сезон

Бесстыжие 9 сезон

Все сериалы

все сериалы на PB.wtf

RePack

FAR CRY 5
Ребята, катастрофически не хватает 7730р. для оплаты серверов за АВГУСТ (всвязи с блокировками трафик упал в 3 раза), 1-2р., выручайте.
  

Цепь / Cord (Сидни Дж. Фьюри) [2000, триллер, драма, криминал, DVDRip] MVO pb.wtf

Цепь через торрент pb.wtf

Размер: 1.37 GB | Добавлен: 4 года 9 мес. назад | Торрент скачан:28 раз
Скачать  

02-12-2014 07:35 Цепь Скачать торрент  

Цепь / Cord
«It's not a game»


Год выпуска: 2000
Страна: Канада
Жанр: триллер, драма, криминал
Продолжительность: 01:35:41
Перевод: Профессиональный (многоголосый закадровый)

Режиссер: Сидни Дж. Фьюри
Сценарий: Джоэль Хладесек, Йас Таката
Продюсер: Гари Хаусэм, Питер Круненбург, Марк Эмин
Оператор: Куртис Петерсен
Композитор : Роберт Карли
Художник: Режан Лябри, Дарена Сноуи, Стефен Арндт
Монтаж: Сауль Пинкус

В ролях: Дэрил Ханна / Daryl Hannah (Anne White), Дженнифер Тилли / Jennifer Tilly (Helen), Брюс Гринвуд / Bruce Greenwood (Jack), Винсент Галло / Vincent Gallo (Frank), Джоанна Блэк / Johanna Black (Emily), Шэрон Байер / Sharon Bajer (Dr. Webster), Чад Брюс / Chad Bruce (Detective Duncan), Ванесса МакРэй / Vanessa MaCrae (Delivery Woman)


Описание: Иногда материнская любовь не знает границ. Молодая семейная пара, Энн и Джек, несколько лет безуспешно пытаются стать родителями. У Хелен и Фрэнка та же проблема, но они выбирают другой путь ее решения.Похитив Энн и инсценировав ее смерть, они надеются, что она выносит их ребенка, а затем от нее можно будет избавиться. Но когда из трех родителей двое стоят на грани безумия, материнство оборачивается не рождением, а смертью…
Премьера (мир): 29 марта 2000
Рейтинг MPAA: Лицам до 17 лет обязательно присутствие взрослого

Качество: DVDRip
Формат: AVI
Видео кодек: XviD
Аудио кодек: AC3
Видео: 704x384 (16:9), 25.000 fps, XviD, 1 847 Kbps
Аудио: Аудио #1: AC3, 192 Kbps, 48.0 KHz, 2 ch

Код:

General
Complete name                    : Cord.2000..avi
Format                           : AVI
Format/Info                      : Audio Video Interleave
File size                        : 1.37 GiB
Duration                         : 1h 35mn
Overall bit rate                 : 2 046 Kbps
Writing application              : VirtualDubMod 1.5.4.1 (build 2178/release)
Writing library                  : VirtualDubMod build 2178/release

Video
ID                               : 0
Format                           : MPEG-4 Visual
Format profile                   : Advanced Simple@L5
Format settings, BVOP            : Yes
Format settings, QPel            : No
Format settings, GMC             : No warppoints
Format settings, Matrix          : Custom
Codec ID                         : XVID
Codec ID/Hint                    : XviD
Duration                         : 1h 35mn
Bit rate                         : 1 847 Kbps
Width                            : 704 pixels
Height                           : 384 pixels
Display aspect ratio             : 16:9
Frame rate                       : 25.000 fps
Color space                      : YUV
Chroma subsampling               : 4:2:0
Bit depth                        : 8 bits
Scan type                        : Progressive
Bits/(Pixel*Frame)               : 0.273
Stream size                      : 1.23 GiB (90%)
Writing library                  : XviD 64

Audio
ID                               : 1
Format                           : AC-3
Format/Info                      : Audio Coding 3
Mode extension                   : CM (complete main)
Codec ID                         : 2000
Duration                         : 1h 35mn
Bit rate mode                    : Constant
Bit rate                         : 192 Kbps
Channel(s)                       : 2 channels
Channel positions                : Front: L R
Sampling rate                    : 48.0 KHz
Bit depth                        : 16 bits
Stream size                      : 131 MiB (9%)
Alignment                        : Aligned on interleaves
Interleave, duration             : 96 ms (2.40 video frames)
Interleave, preload duration     : 96 ms
Language                         : Russian





pb.wtf



Скачать Цепь через торрент http://i64.fastpic.ru/big/2014/1202/34/9db9ef965458e85e1a0cf92be2051934.jpg Скачать фильм Цепь через торрент бесплантно в хорошем качестве Описание: Иногда материнская любовь не знает границ. Молодая семейная пара, Энн и Джек, несколько лет безуспешно пытаются стать родителями. ... 10 10 2
Торрент: Зарегистрирован [2014-12-02 07:35] · скачан: 28 раз
Статус: √ проверено
Размер: 1.37 GB
Как cкачать? Как скачать Цепь через торрент | qTorrent


>> Регистрируемся здесь <<






Отзывы и комментарии о схеме читаем и пишем здесь: ---> Отзывы и комментарии о схеме

Новые благодарочки в телеграм довольных пользователей:
скриншот   скриншот   скриншот   скриншот   скриншот
    Дорогой пользователь! Огромная просьба, поблагодарите релизера, оцените раздачу и оставьте свои комментарий, если Вы скачали Цепь через торрент бесплатно! Внесите свою лепту в развитие PiratBit!
    Комментировать посты могут только пользователи прошедшие не сложную регистрацию
    Показать сообщения:    

    Цепь через торрент
    Скачать бесплатно Цепь
    Цепь скачать торрент
    Цепь смотреть онлайн
    Cкачать фильм Цепь бесплатно
    Цепь скачать торрент в хорошем качестве
    Цепь смотреть онлайн бесплатно в хорошем качестве


    Вы не можете начинать темы
    Вы не можете отвечать на сообщения
    Вы не можете редактировать свои сообщения
    Вы не можете удалять свои сообщения
    Вы не можете голосовать в опросах
    Вы не можете прикреплять файлы к сообщениям
    Вы можете скачивать файлы