1 сезон

1 сезон

iTunes

1

КиноПоиск HD

Кинопоиск HD

iTunes

13

1 сезон

RePack

30

Ultimate

ВАЖНО

ИГРА 18+

pack

RePack

MK11
pack

Легкие деньги

RePack

jed

RePack

fifa19

RePack

RDR2

RePack

NEED FOR SPEED™ PAYBACK

4 сезон

9 сезон

Бесстыжие 9 сезон

Все сериалы

все сериалы на PB.wtf

RePack

FAR CRY 5
  
Magnet ссылка

Братва / Gang Tapes (Адам Рипп) [2001, драма, криминал, DVDRip] MVO pb.wtf

Братва через торрент pb.wtf

Размер: 1.37 GB | Добавлен: 6 лет 4 мес. назад | Торрент скачан:43 раза
Скачать  

02-12-2014 08:39 Братва Скачать торрент  

Братва / Gang Tapes
«A coming of Rage story»


Год выпуска: 2001
Страна: США
Жанр: драма, криминал
Продолжительность: 01:19:48
Перевод: Профессиональный (многоголосый закадровый)

Режиссер: Адам Рипп
Сценарий: Стивен Вульфсон, Адам Рипп
Продюсер: Дэвид Х. Гудман, Адам Рипп, Квентин Дрю
Оператор: Кит Л. Смит
Композитор : Кулио, Курупт, Чино XL
Художник: Томас А. Браун, Анджела Поттс, Чия Касселл
Монтаж: Тина Имахара

В ролях: Дэррис Лав / Darris Love (Alonzo), Даронтэй МакКлендон / Darontay McClendon (Cyril), Дон Кэмбелл / Don Cambell (Travis), Сикс Ризонс / Six Reasons (Erik), Тривелл / Trivell (Kris), Соня Мари / Sonja Marie (Kris' Mother), Аура Руис / Aura Ruiz (Khandi), Ташейя Вудворд / Tasheia Woodward (Kris' Sister)


Описание: Семья туристов-американцев (мама, папа, сын и дочь) приехала в Лос-Анджелес и заблудилась в каком-то районе, где на их машину налетели несколько местных чернокожих братков, выкинули туристов на дорогу и укатили в их авто. Видеокамера, которой провинциалы снимали себя и достопримечательности, оказалась в руках одного из налетчиков.Дома у него выпросил камеру 14-летний пацан Крис, который с этой минуты стал фиксировать на видео все, что видел вокруг: и мать, которая прихорашивалась перед свиданием, и свой первый сексуальный опыт, и самого себя перед зеркалом, но главным образом — приятелей-бандюганов Алонзо, Сирила и других.
Премьера (мир): 12 февраля 2001
Релиз на DVD: 23 июня 2005, «CP-Digital»
Рейтинг MPAA: Лицам до 17 лет обязательно присутствие взрослого

Качество: DVDRip
Формат: AVI
Видео кодек: XviD
Аудио кодек: AC3
Видео: 704x528 (4:3), 25.000 fps, XviD, 1 999 Kbps
Аудио: Аудио #1: AC3, 448 Kbps, 48.0 KHz, 6 ch

Код:

General
Complete name                    : Bratva.Gangsterskie.chroniki.avi
Format                           : AVI
Format/Info                      : Audio Video Interleave
File size                        : 1.37 GiB
Duration                         : 1h 19mn
Overall bit rate                 : 2 454 Kbps
Writing application              : VirtualDubMod 1.5.4.1 (build 2178/release)
Writing library                  : VirtualDubMod build 2178/release

Video
ID                               : 0
Format                           : MPEG-4 Visual
Format profile                   : Advanced Simple@L5
Format settings, BVOP            : Yes
Format settings, QPel            : No
Format settings, GMC             : No warppoints
Format settings, Matrix          : Custom
Codec ID                         : XVID
Codec ID/Hint                    : XviD
Duration                         : 1h 19mn
Bit rate                         : 1 999 Kbps
Width                            : 704 pixels
Height                           : 528 pixels
Display aspect ratio             : 4:3
Frame rate                       : 25.000 fps
Color space                      : YUV
Chroma subsampling               : 4:2:0
Bit depth                        : 8 bits
Scan type                        : Progressive
Bits/(Pixel*Frame)               : 0.215
Stream size                      : 1.11 GiB (81%)
Writing library                  : XviD 64

Audio
ID                               : 1
Format                           : AC-3
Format/Info                      : Audio Coding 3
Mode extension                   : CM (complete main)
Codec ID                         : 2000
Duration                         : 1h 19mn
Bit rate mode                    : Constant
Bit rate                         : 448 Kbps
Channel(s)                       : 6 channels
Channel positions                : Front: L C R, Side: L R, LFE
Sampling rate                    : 48.0 KHz
Bit depth                        : 16 bits
Stream size                      : 256 MiB (18%)
Alignment                        : Aligned on interleaves
Interleave, duration             : 96 ms (2.40 video frames)
Interleave, preload duration     : 96 ms
Language                         : Russian





pb.wtf



Скачать Братва через торрент http://i65.fastpic.ru/big/2014/1202/cd/75c55ac7a39b4bdeeed7ce2051c93fcd.jpg Скачать фильм Братва через торрент бесплантно в хорошем качестве Описание: Семья туристов-американцев (мама, папа, сын и дочь) приехала в Лос-Анджелес и заблудилась в каком-то районе, где на их машину ... 10 10 2
Торрент: Зарегистрирован [2014-12-02 08:39] · скачан: 43 раз
Статус: √ проверено
Размер: 1.37 GB
Как cкачать? Как скачать Братва через торрент | UTorrent

28-11-2019 20:33  

Отключить всю рекламу на сайте

    Дорогой пользователь! Огромная просьба, поблагодарите релизера, оцените раздачу и оставьте свои комментарий, если Вы скачали Братва через торрент бесплатно! Внесите свою лепту в развитие PiratBit!
    Комментировать посты могут только пользователи прошедшие не сложную регистрацию
    Показать сообщения:    

    Братва через торрент
    Скачать бесплатно Братва
    Братва скачать торрент
    Братва смотреть онлайн
    Cкачать фильм Братва бесплатно
    Братва скачать торрент в хорошем качестве
    Братва смотреть онлайн бесплатно в хорошем качестве


    Вы не можете начинать темы
    Вы не можете отвечать на сообщения
    Вы не можете редактировать свои сообщения
    Вы не можете удалять свои сообщения
    Вы не можете голосовать в опросах
    Вы не можете прикреплять файлы к сообщениям
    Вы можете скачивать файлы