Ссылка на приватное зеркало нашего сайта всего за 1$. Внимание количество ограничено!!!

2 сезон

iTunes

1 сезон

1

iTunes

iTunes

iTunes

1 сезон

RePack

30

ИГРА 18+

pack

ВАЖНО

!!Акция!!

Alien_RageХит недели

RePack

MK11
pack

Забери бонус

RePack

jed

!!Акция!!

Alien_Rage

RePack

fifa19

RePack

Assassins Creed: Odyssey

RePack

NEED FOR SPEED™ PAYBACK

4 сезон

9 сезон

Бесстыжие 9 сезон

Все сериалы

все сериалы на PB.wtf

RePack

FAR CRY 5
  

Игра на высоте / When the Game Stands Tall (Томас Картер) [2014 г., Драма, спорт, BDRip 1080p, MVO [iTunes] pb.wtf

Игра на высоте через торрент pb.wtf

Размер: 9.81 GB | Добавлен: 5 лет 10 мес. назад | Торрент скачан:78 раз
Скачать  

02-12-2014 11:27 Игра на высоте Скачать торрент  

Информация о фильме

Название: Игра на высоте

Оригинальное название: When the Game Stands Tall

Год выхода: 2014

Страна: США

Продолжительность: 01:55:08

Перевод: Профессиональное (многоголосое) [iTunes]

Субтитры: английские

Жанр: драма, спорт

Режиссер: Томас Картер / Thomas Carterr

В ролях: Джеймс Кэвизел, Александр Людвиг, Майкл Чиклис, Лора Дерн, Клэнси Браун, Сер’Дариус Блэйн, Стивен Джеймс, Мэттью Даддарио, Джо Массинджилл, Джесси Ашер

Описание:

Фильм основан на реальных событиях. Это история футбольного тренера, благодаря которому безызвестная школьная футбольная команда провела победную серию из 151-й игры.



Файл
Качество: BDRip 1080p
Кодек: MKV
Видео кодек: H.264
Аудио кодек: AC3, DTS
Видео: MPEG-4 AVC/H.264,~10296 kbps, 1920 X 1036
Аудио 1: Русский, AC3 5.1, 384 kbps, 48 kHz (MVO)
Аудио 2: Английский, DTS 5.1, 1509 kbps, 48 kHz (Original)
Скачать: Сэмпл
Общее

Уникальный идентификатор : 226108473960118564674516907623273567613 (0xAA1AE87724212E7998B40DC246B1957D)

Полное имя : D:FilmsWhen.the.Game.Stands.Tall.2014.BDRip.1080p.mkv

Формат : Matroska

Версия формата : Version 2

Размер файла : 9,81 Гбайт

Продолжительность : 1 ч. 55 м.

Общий поток : 12,2 Мбит/сек

Дата кодирования : UTC 2014-11-22 17:21:46

Программа кодирования : mkvmerge v5.2.0 ('I can't explain') built on Dec 18 2011 18:12:03

Библиотека кодирования : libebml v1.2.3 + libmatroska v1.3.0

Видео

Идентификатор : 1

Формат : AVC

Формат/Информация : Advanced Video Codec

Профиль формата : High@L4.1

Параметр CABAC формата : Да

Параметр ReFrames формата : 5 кадров

Идентификатор кодека : V_MPEG4/ISO/AVC

Продолжительность : 1 ч. 55 м.

Битрейт : 10,3 Мбит/сек

Ширина : 1920 пикселей

Высота : 1036 пикселей

Соотношение сторон : 1,85:1

Режим частоты кадров : Постоянный

Частота кадров : 23,976 кадра/сек

Цветовое пространство : YUV

Субдискретизация насыщенности : 4:2:0

Битовая глубина : 8 бит

Тип развёртки : Прогрессивная

Бит/(Пиксели*Кадры) : 0.216

Размер потока : 8,09 Гбайт (82%)

Библиотека кодирования : x264 core 138 r2358 9e941d1

Настройки программы : cabac=1 / ref=5 / deblock=1:-3:-3 / analyse=0x3:0x113 / me=umh / subme=11 / psy=1 / psy_rd=1.05:0.10 / mixed_ref=1 / me_range=48 / chroma_me=1 / trellis=2 / 8x8dct=1 / cqm=0 / deadzone=21,11 / fast_pskip=0 / chroma_qp_offset=-2 / threads=18 / lookahead_threads=1 / sliced_threads=0 / nr=0 / decimate=1 / interlaced=0 / bluray_compat=0 / constrained_intra=0 / bframes=6 / b_pyramid=2 / b_adapt=2 / b_bias=0 / direct=3 / weightb=1 / open_gop=0 / weightp=2 / keyint=250 / keyint_min=23 / scenecut=40 / intra_refresh=0 / rc_lookahead=40 / rc=2pass / mbtree=0 / bitrate=10300 / ratetol=2.0 / qcomp=0.70 / qpmin=0 / qpmax=69 / qpstep=4 / cplxblur=20.0 / qblur=0.5 / vbv_maxrate=40000 / vbv_bufsize=30000 / nal_hrd=none / ip_ratio=1.40 / pb_ratio=1.30 / aq=2:1.00

Язык : English

Default : Да

Forced : Нет

Аудио #1

Идентификатор : 2

Формат : AC-3

Формат/Информация : Audio Coding 3

Расширение режима : CM (complete main)

Параметр Endianness формата : Big

Идентификатор кодека : A_AC3

Продолжительность : 1 ч. 55 м.

Вид битрейта : Постоянный

Битрейт : 384 Кбит/сек

Каналы : 6 каналов

Расположение каналов : Front: L C R, Side: L R, LFE

Частота : 48,0 КГц

Битовая глубина : 16 бит

Метод сжатия : С потерями

Размер потока : 316 Мбайт (3%)

Заголовок : MVO

Язык : Russian

Default : Да

Forced : Нет

Аудио #2

Идентификатор : 3

Формат : DTS

Формат/Информация : Digital Theater Systems

Режим : 16

Параметр Endianness формата : Big

Идентификатор кодека : A_DTS

Продолжительность : 1 ч. 55 м.

Вид битрейта : Постоянный

Битрейт : 1509 Кбит/сек

Каналы : 6 каналов

Расположение каналов : Front: L C R, Side: L R, LFE

Частота : 48,0 КГц

Битовая глубина : 24 бит

Метод сжатия : С потерями

Размер потока : 1,21 Гбайт (12%)

Заголовок : Original

Язык : English

Default : Нет

Forced : Нет

Текст

Идентификатор : 4

Формат : UTF-8

Идентификатор кодека : S_TEXT/UTF8

Идентификатор кодека/Информация : UTF-8 Plain Text

Язык : English

Default : Нет

Forced : Нет

Меню

00:00:00.000 : en:00:00:00.000

00:10:07.190 : en:00:10:07.190

00:17:37.598 : en:00:17:37.598

00:23:10.973 : en:00:23:10.973

00:28:50.687 : en:00:28:50.687

00:37:12.355 : en:00:37:12.355

00:45:03.159 : en:00:45:03.159

00:52:08.000 : en:00:52:08.000

00:59:25.854 : en:00:59:25.854

01:06:55.845 : en:01:06:55.845

01:13:16.309 : en:01:13:16.309

01:20:44.715 : en:01:20:44.715

01:26:51.873 : en:01:26:51.873

01:35:38.066 : en:01:35:38.066

01:42:36.192 : en:01:42:36.192

01:47:56.679 : en:01:47:56.679

----------------x264iNFO-----------------

x264 [info]: frame I:1842 Avg QP:14.93 size:182723

x264 [info]: frame P:56379 Avg QP:17.00 size: 87305

x264 [info]: frame B:107451 Avg QP:17.88 size: 31898


pb.wtf



Скачать Игра на высоте через торрент http://s017.radikal.ru/i419/1411/ec/5108babd7815.jpg Скачать фильм Игра на высоте через торрент бесплантно в хорошем качестве Описание:Фильм основан на реальных событиях. Это история футбольного тренера, благодаря которому безызвестная школьная футбольная команда ... 9 10 4
Торрент: Зарегистрирован [2014-12-02 11:27] · скачан: 78 раз
Статус: √ проверено
Размер: 9.81 GB
Как cкачать? Как скачать Игра на высоте через торрент | qTorrent

% Раздел Тема Автор DL S | L
Фильмы 2014 [DVDrip, WEB-DLRip, HDrip] [ 1.46 GB ] Игра на высоте / When the Game Stands Tall [2014 HDRip многоголосый ] Anonymous Скачать
1 | 0
Фильмы 2014 [DVDrip, WEB-DLRip, HDrip] [ 2.28 GB ] Игра на высоте / When the Game Stands Tall [2014 HDRip многоголосый] Dean24 Скачать
1 | 0
Фильмы 2014 [DVDrip, WEB-DLRip, HDrip] [ 1.37 GB ] Игра на высоте / When the Game Stands Tall [2014 WEB-DLRip многоголосый - ] _KaisiK_ Скачать
1 | 0

28-11-2019 20:33  

Отключить всю рекламу на сайте

02-12-2014 18:55 Игра на высоте Скачать торрент  

Хороший Фильм !!!pb.wtf



    Дорогой пользователь! Огромная просьба, поблагодарите релизера, оцените раздачу и оставьте свои комментарий, если Вы скачали Игра на высоте через торрент бесплатно! Внесите свою лепту в развитие PiratBit!
    Комментировать посты могут только пользователи прошедшие не сложную регистрацию
    Показать сообщения:    

    Игра на высоте через торрент
    Скачать бесплатно Игра на высоте
    Игра на высоте скачать торрент
    Игра на высоте смотреть онлайн
    Cкачать фильм Игра на высоте бесплатно
    Игра на высоте скачать торрент в хорошем качестве
    Игра на высоте смотреть онлайн бесплатно в хорошем качестве


    Вы не можете начинать темы
    Вы не можете отвечать на сообщения
    Вы не можете редактировать свои сообщения
    Вы не можете удалять свои сообщения
    Вы не можете голосовать в опросах
    Вы не можете прикреплять файлы к сообщениям
    Вы можете скачивать файлы