новый адрес пиратбит piratbit
Мега распродажа FORZA HORIZON 4 ULTIMATE+ВСЕ DLC+ОНЛАЙН всего за 499р. 349 руб. (супер цена). Внимание количество ограничено!!!

iTunes

1+1

iTunes

мы

iTunes

1

iTunes

Чернобыль

iTunes

Ральф против интернета

Лицензия

ПШазам

Лицензия

Игра престолов

Лицензия

30
pack

ВАЖНО

!!Акция!!

Alien_RageХит недели

RePack

Resident Evil 21

ИГРА 18+

pack

RePack

Metro:Exodus

!!Акция!!

Alien_Rage

RePack

fifa19

RePack

Assassins Creed: Odyssey

RePack

NEED FOR SPEED™ PAYBACK

3 сезон

9 сезон

Бесстыжие 9 сезон

Все сериалы

все сериалы на PB.wtf

RePack

FAR CRY 5
Ребята, катастрофически не хватает 1900р. для оплаты серверов за Октябрь (всвязи с блокировками трафик упал в 3 раза), 1-2р., выручайте.
  

Кто есть кто / Flic ou voyou (Жорж Лотнер / Georges Lautner) [1979 г., боевик, криминал, комедия, BDRip, Дубляж, Лицензия] pb.wtf

Кто есть кто через торрент pb.wtf

Размер: 2.66 GB | Добавлен: 4 года 11 мес. назад | Торрент скачан:44 раза
Скачать  

02-12-2014 19:36 Кто есть кто Скачать торрент  

Кто есть кто / Flic ou voyou
Год выпуска: 1979
Страна: Франция
Жанр: боевик, криминал, комедия
Продолжительность: 01:47:05
Перевод: Дубляж, Лицензия
Субтитры: русские, английские

Режиссер: Жорж Лотнер / Georges Lautner
Продюссер: Алан Пуаре
Сценарий: Мишель Одиар, Жан Эрман

В ролях: Жан-Поль Бельмондо — Антонио Черутти (комиссар Станислас Боровиц)
Жюли Жезекель — Шарлотта (дочь Станисласа Боровица) (озвучивала Елена Чухрай)
Жорж Жере — Теодор Мюзар
Мари Лафоре — Эдмонда Пюже-Ростан
Жан-Франсуа Бальмер — инспектор Массар
Клод Броссе — Ахилл (Ашиль)
Мишель Бон — Марсель Ланглуа
Шарль Жерар — Казобан
Мишель Галабрю — комиссар Гримо
Тони Кендалл — Рэй
Мишель Пейрелон — Камиль
Филипп Кастелли — инспектор автошколы

Описание: В Ницце при загадочных обстоятельствах убивают полицейского комиссара и проститутку. Для расследования преступления из Парижа под именем Антонио Черутти, брата убитой проститутки, прибывает сотрудник отдела по надзору за полицией – дивизионный комиссар Боровиц. Однако методы его работы заставляют задуматься, кто же он на самом деле – полицейский или бандит...

Доп. информация: В дубляже есть вставки двухголосой озвучки.

Качество: BDRip
Формат: MKV
Видео кодек: H.264
Аудио кодек: AC3
Видео: 928x560, 23.976 fps, 2915 kbps
Аудио#1: Russian: AC3, 48 kHz, 16 bits, 192 kbps, 2.0 ch (Советский дубляж)
Аудио#2: Russian: AC3, 48 kHz, 16 bits, 192 kbps, 2.0 ch (DVO, Cinema Prestige)
Аудио#3: French: AC3, 48 kHz, 16 bits, 192 kbps, 2.0 ch
Формат субтитров: softsub (SRT)
Навигация по главам: есть
















General
Unique ID : 177197873641435857076781283398552713511 (0x854F11B01078E8AB8BFF52B841F4F927)
Complete name : H:\КЛАССИКА США\Кто есть кто 1979.mkv
Format : Matroska
Format version : Version 2
File size : 2.66 GiB
Duration : 1h 47mn
Overall bit rate : 3 562 Kbps
Movie name : Flic.ou.voyou.1979.BDRip-AVC.kvvk_2009.mkv
Encoded date : UTC 2014-11-21 21:09:30
Writing application : mkvmerge v3.4.0 ('Rapunzel') built on May 15 2010 09:38:20
Writing library : libebml v0.8.0 + libmatroska v0.9.0

Video
ID : 1
Format : AVC
Format/Info : Advanced Video Codec
Format profile : High@L4.1
Format settings, CABAC : Yes
Format settings, ReFrames : 8 frames
Codec ID : V_MPEG4/ISO/AVC
Duration : 1h 47mn
Bit rate : 2 915 Kbps
Width : 928 pixels
Height : 560 pixels
Display aspect ratio : 1.657
Frame rate mode : Constant
Frame rate : 23.976 fps
Color space : YUV
Chroma subsampling : 4:2:0
Bit depth : 8 bits
Scan type : Progressive
Bits/(Pixel*Frame) : 0.234
Stream size : 2.18 GiB (82%)
Writing library : x264 core 142 r2431 ac76440
Encoding settings : cabac=1 / ref=8 / deblock=1:-2:-2 / analyse=0x3:0x113 / me=umh / subme=11 / psy=1 / psy_rd=1.00:0.10 / mixed_ref=1 / me_range=48 / chroma_me=1 / trellis=2 / 8x8dct=1 / cqm=0 / deadzone=21,11 / fast_pskip=0 / chroma_qp_offset=-3 / threads=6 / lookahead_threads=1 / sliced_threads=0 / nr=0 / decimate=0 / interlaced=0 / bluray_compat=0 / constrained_intra=0 / bframes=10 / b_pyramid=2 / b_adapt=2 / b_bias=0 / direct=3 / weightb=1 / open_gop=0 / weightp=2 / keyint=230 / keyint_min=23 / scenecut=40 / intra_refresh=0 / rc_lookahead=50 / rc=crf / mbtree=0 / crf=17.0 / qcomp=0.60 / qpmin=0 / qpmax=51 / qpstep=4 / vbv_maxrate=50000 / vbv_bufsize=62500 / crf_max=0.0 / nal_hrd=none / filler=0 / ip_ratio=1.40 / pb_ratio=1.30 / aq=1:0.90
Language : English
Default : No
Forced : No

Audio #1
ID : 2
Format : AC-3
Format/Info : Audio Coding 3
Mode extension : CM (complete main)
Format settings, Endianness : Big
Codec ID : A_AC3
Duration : 1h 47mn
Bit rate mode : Constant
Bit rate : 192 Kbps
Channel(s) : 2 channels
Channel positions : Front: L R
Sampling rate : 48.0 KHz
Bit depth : 16 bits
Compression mode : Lossy
Stream size : 147 MiB (5%)
Title : AC3 2ch @ 192kbps |Сов. дубляж|
Language : Russian
Default : Yes
Forced : No

Audio #2
ID : 3
Format : AC-3
Format/Info : Audio Coding 3
Mode extension : CM (complete main)
Format settings, Endianness : Big
Codec ID : A_AC3
Duration : 1h 47mn
Bit rate mode : Constant
Bit rate : 192 Kbps
Channel(s) : 2 channels
Channel positions : Front: L R
Sampling rate : 48.0 KHz
Bit depth : 16 bits
Compression mode : Lossy
Stream size : 147 MiB (5%)
Title : AC3 2ch @ 192kbps |DVO, Cinema Prestige|
Language : Russian
Default : No
Forced : No

Audio #3
ID : 4
Format : AC-3
Format/Info : Audio Coding 3
Mode extension : CM (complete main)
Format settings, Endianness : Big
Codec ID : A_AC3
Duration : 1h 47mn
Bit rate mode : Constant
Bit rate : 192 Kbps
Channel(s) : 2 channels
Channel positions : Front: L R
Sampling rate : 48.0 KHz
Bit depth : 16 bits
Compression mode : Lossy
Stream size : 147 MiB (5%)
Title : AC3 2ch @ 192kbps
Language : French
Default : No
Forced : No

Text #1
ID : 5
Format : UTF-8
Codec ID : S_TEXT/UTF8
Codec ID/Info : UTF-8 Plain Text
Language : Russian
Default : No
Forced : No

Text #2
ID : 6
Format : UTF-8
Codec ID : S_TEXT/UTF8
Codec ID/Info : UTF-8 Plain Text
Language : English
Default : No
Forced : No

Menu
00:00:00.000 : :00:00:00.000
00:04:20.927 : :00:04:20.927
00:16:47.965 : :00:16:47.965
00:22:11.747 : :00:22:11.747
00:32:36.454 : :00:32:36.454
00:44:11.482 : :00:44:11.482
00:51:07.731 : :00:51:07.731
01:01:13.086 : :01:01:13.086
01:11:17.481 : :01:11:17.481
01:20:08.553 : :01:20:08.553
01:29:52.095 : :01:29:52.095
01:37:46.777 : :01:37:46.777

Копия 1920*1080, Размер:18.06 GB здесь: Кто есть кто / Flic ou voyou / Cop or Hood pb.wtf



Скачать Кто есть кто через торрент http://i67.fastpic.ru/big/2014/1202/c9/2f70586707f30b73f4936548351df9c9.jpeg Скачать фильм Кто есть кто через торрент бесплантно в хорошем качестве Описание: В Ницце при загадочных обстоятельствах убивают полицейского комиссара и проститутку. Для расследования преступления из Парижа под ... 9.8 10 6
Торрент: Зарегистрирован [2014-12-02 19:36] · скачан: 44 раз
Статус: √ проверено
Размер: 2.66 GB
Как cкачать? Как скачать Кто есть кто через торрент | qTorrent

% Раздел Тема Автор DL S | L
Фильмы (HD 720p, 1080p) (48-60 fps) [ 5.4 GB ] Кто есть кто / Flic ou voyou / Cop or Hood [1979 BDRip 720p / 60 FPS ] от R.G. HD-Films slaventi-69 Скачать
1 | 0
Фильмы (Blu-ray, BD-Remux, HDDVD) [ 18.06 GB ] Кто есть кто / Flic ou voyou / Cop or Hood [1979 BDRemux 1080p] Dub + DVOx2 + Subs Assasinca Скачать
1 | 0


>> Регистрируемся здесь <<






Отзывы и комментарии о схеме читаем и пишем здесь: ---> Отзывы и комментарии о схеме

Новые благодарочки в телеграм довольных пользователей:
скриншот   скриншот   скриншот   скриншот   скриншот
    Дорогой пользователь! Огромная просьба, поблагодарите релизера, оцените раздачу и оставьте свои комментарий, если Вы скачали Кто есть кто через торрент бесплатно! Внесите свою лепту в развитие PiratBit!
    Комментировать посты могут только пользователи прошедшие не сложную регистрацию
    Показать сообщения:    

    Кто есть кто через торрент
    Скачать бесплатно Кто есть кто
    Кто есть кто скачать торрент
    Кто есть кто смотреть онлайн
    Cкачать фильм Кто есть кто бесплатно
    Кто есть кто скачать торрент в хорошем качестве
    Кто есть кто смотреть онлайн бесплатно в хорошем качестве


    Вы не можете начинать темы
    Вы не можете отвечать на сообщения
    Вы не можете редактировать свои сообщения
    Вы не можете удалять свои сообщения
    Вы не можете голосовать в опросах
    Вы не можете прикреплять файлы к сообщениям
    Вы можете скачивать файлы