Ссылка на приватное зеркало нашего сайта всего за 1$. Внимание количество ограничено!!!

2 сезон

iTunes

1 сезон

1

iTunes

iTunes

iTunes

1 сезон

RePack

30

ИГРА 18+

pack

ВАЖНО

!!Акция!!

Alien_RageХит недели

RePack

MK11
pack

Забери бонус

RePack

jed

!!Акция!!

Alien_Rage

RePack

fifa19

RePack

Assassins Creed: Odyssey

RePack

NEED FOR SPEED™ PAYBACK

4 сезон

9 сезон

Бесстыжие 9 сезон

Все сериалы

все сериалы на PB.wtf

RePack

FAR CRY 5
  

Гордиев узел / Серии: 1-4 из 4 (Анатолий Матешко) [2014, Мелодрама, SATRip] pb.wtf

Гордиев узел через торрент pb.wtf

Размер: 1.98 GB | Добавлен: 5 лет 10 мес. назад | Торрент скачан:231 раз
Скачать  

02-12-2014 21:06 Гордиев узел Скачать торрент  


Гордиев узел (мини-сериал)


Год выпуска:2014
Страна: Россия, Украина
Жанр:мелодрама
Продолжительность:00:51:26
Перевод:Не требуется
Режиссер:Анатолий Матешко

  • В ролях:

    Вера Баханкова, Елена Полянская (Настя), Анна Васильева, Ярослав Жалнин, Иван Михайловский, Тимофей Каратаев, Денис Роднянский (Стас), Ксения Николаева (мама Насти)
  • Описание:
    В приморском городе живут три девушки: Лика Гордеева - первая красавица города, Настя Макарова - гордость школы и золотая медалистка, и Женька Полищук - пацанка, бредящая дальними плаваниями. Женька безответно влюблена в Колю - сына учительницы математики и верного рыцаря Насти. Но Коля относится к Женьке как к младшей сестренке. А Настя не отвечает Коле взаимностью: для нее он лишь друг детства. А у Лики роман с Виктором, лихим местным байкером, перебивающимся случайными заработками. Впрочем, относится она к роману крайне цинично: «чтоб опыта поднабраться». Цель Лики - вырваться в столицу. И тут на летние каникулы приезжает домой Настя с женихом. Максим - ее однокурсник, обаятельный открытый парень из интеллигентной семьи. Могла ли Лика не воспользоваться таким шансом?
    Прошло время. У Коли с Настей - семья, растет сын, у Максима с Ликой - дочка. Лика, почти не скрываясь, изменяет мужу со своим директором. Настя и Максим, не видевшиеся все эти годы, случайно сталкиваются на вокзале. Мимолетная встреча, пара ничего не значащих фраз - но и этого достаточно, чтобы опять закрутился круговорот из примирений, расставаний и встреч. Гордиев узел, разрубить который способна только любовь...

  • Мировая премьера:29 ноября 2014

    Качество: SATRip
    Формат:AVI
    Видео кодек: XviD
    Аудио кодек:MP3
    Видео: XviD, 704x368 (1.913), 1495 kbps, 25 fps, 0,231 bpp
    Аудио: MP3 / 2.0 / 48 kHz / 128 kbps /


    Код:

    General
    Complete name                            : D:\Торенты\ГОРДИЕВ УЗЕЛ\Gordiev uzel.01.SATRip.avi
    Format                                   : AVI
    Format/Info                              : Audio Video Interleave
    File size                                : 601 MiB
    Duration                                 : 51mn 26s
    Overall bit rate                         : 1 633 Kbps
    Writing application                      : VirtualDubMod 1.5.10.2 (build 2540/release)
    Writing library                          : VirtualDub build 35491/release

    Video
    ID                                       : 0
    Format                                   : MPEG-4 Visual
    Format profile                           : Advanced Simple@L5
    Format settings, BVOP                    : 2
    Format settings, QPel                    : No
    Format settings, GMC                     : No warppoints
    Format settings, Matrix                  : Default (MPEG)
    Muxing mode                              : Packed bitstream
    Codec ID                                 : XVID
    Codec ID/Hint                            : XviD
    Duration                                 : 51mn 26s
    Bit rate                                 : 1 495 Kbps
    Width                                    : 704 pixels
    Height                                   : 368 pixels
    Display aspect ratio                     : 1.913
    Frame rate                               : 25.000 fps
    Color space                              : YUV
    Chroma subsampling                       : 4:2:0
    Bit depth                                : 8 bits
    Scan type                                : Progressive
    Compression mode                         : Lossy
    Bits/(Pixel*Frame)                       : 0.231
    Stream size                              : 550 MiB (92%)
    Writing library                          : XviD 65

    Audio
    ID                                       : 1
    Format                                   : MPEG Audio
    Format version                           : Version 1
    Format profile                           : Layer 3
    Mode                                     : Joint stereo
    Codec ID                                 : 55
    Codec ID/Hint                            : MP3
    Duration                                 : 51mn 26s
    Bit rate mode                            : Constant
    Bit rate                                 : 128 Kbps
    Channel(s)                               : 2 channels
    Sampling rate                            : 48.0 KHz
    Compression mode                         : Lossy
    Stream size                              : 47.1 MiB (8%)
    Alignment                                : Aligned on interleaves
    Interleave, duration                     : 40 ms (1.00 video frame)
    Interleave, preload duration             : 504 ms
    Writing library                          : LAME3.90.3ЄЄЄЄЄЄЄЄЄЄ

    Скриншоты:

    Каталог Новинок (Фильмы-трейлеры, Игры, Сериалы, Мультфильмы)

    © Оформление by Ворон
    pb.wtf



  • Скачать Гордиев узел через торрент http://pic.kartinco.top/images/6/ordi9.jpg Скачать фильм Гордиев узел через торрент бесплантно в хорошем качестве Описание:В приморском городе живут три девушки: Лика Гордеева - первая красавица города, Настя Макарова - гордость школы и золотая ... 9 10 11
    Торрент: Зарегистрирован [2014-12-02 21:06] · скачан: 231 раз
    Статус: √ проверено
    Размер: 1.98 GB
    Как cкачать? Как скачать Гордиев узел через торрент | qTorrent

    28-11-2019 20:33  

    Отключить всю рекламу на сайте

      Дорогой пользователь! Огромная просьба, поблагодарите релизера, оцените раздачу и оставьте свои комментарий, если Вы скачали Гордиев узел через торрент бесплатно! Внесите свою лепту в развитие PiratBit!
      Комментировать посты могут только пользователи прошедшие не сложную регистрацию
      Показать сообщения:    

      Гордиев узел через торрент
      Скачать бесплатно Гордиев узел
      Гордиев узел скачать торрент
      Гордиев узел смотреть онлайн
      Cкачать фильм Гордиев узел бесплатно
      Гордиев узел скачать торрент в хорошем качестве
      Гордиев узел смотреть онлайн бесплатно в хорошем качестве


      Вы не можете начинать темы
      Вы не можете отвечать на сообщения
      Вы не можете редактировать свои сообщения
      Вы не можете удалять свои сообщения
      Вы не можете голосовать в опросах
      Вы не можете прикреплять файлы к сообщениям
      Вы можете скачивать файлы