Всегда рабочее зеркало просто перед .vidak.icu напиши любое слово или цифру, Пример http://se2.vidak.icu

>

7.4

iTunes

7.4

2 сезон

9.4

1 сезон

1

7.4

2 сезон

7.2

iTunes

6.0

MVO

13

6.1

iTunes

8.3

Пиратка

30

ULTIMATE

pack

9.9

Лицензия

ВАЖНО

ИГРА 18+

pack

7.3

RePack

MK11

7.7

RePack

jed

7.8

RePack

fifa19

8.5

RePack

RDR2

RePack

NEED FOR SPEED™ PAYBACK

1 сезон

9 сезон

Бесстыжие 9 сезон

Все сериалы

все сериалы на PB.wtf

RePack

FAR CRY 5

Anonymous, доброй ночи, мы катастрофически не успеваем собрать деньги на оплату серверов, помогите нам пожалуйста 5,10,15р., для нас важна любая помощь . В качестве благодарности мы отключим Вам всю рекламу на сайте (укажите свой ник в строку Ваше имя)!

×
  
Magnet ссылка

Предопределение / Патруль времени / Predestination (Майкл Спириг / Michael Spierig, Питер Спириг / Peter Spierig) [2013, Австралия, фантастика, триллер, BDRip-AVC, Авторский (одноголосый)] pb.wtf

Предопределение через торрент pb.wtf

Размер: 2.18 GB | Добавлен: 7 лет 1 мес. назад | Торрент скачан:90 раз
Смотреть онлайн Предопределение | Скачать    Ребята, помогите собрать деньги на оплату серверов!!!

03-12-2014 10:31 Предопределение Скачать торрент  

Предопределение / Патруль времени / Predestination«Чтобы сохранить будущее, он должен изменить прошлое»
Год выпуска: 2013
Страна: Австралия
Жанр: фантастика, триллер
Продолжительность: 01:37:48
Перевод: Авторский (одноголосый) - [Дмитрий Есарев / без цензуры]
Субтитры: Отсутствует
Режиссер: Майкл Спириг / Michael Spierig, Питер Спириг / Peter Spierig
В ролях:


Итан Хоук (The Bartender), Сара Снук (The Unmarried Mother), Ноа Тейлор (Mr. Robertson), Элиз Джэнсен (Nurse), Кристофер Кирби (Agent Miles), Фрея Стэффорд (Alice), Кейт Вульф (Beth Fetherage), Мадлен Уэст (Mrs. Stapleton), Алексис Фернандес (Marcy / Amazon Woman), Джим Нобелок (Dr. Belfort), Люсинда Армстронг Холл (Blonde-haired Classmate), Алисия Павлис (Hooker Girl Recruit)

Описание:
Будущее. Ученые создали машину времени, и с этим изобретением мир вошел в новый виток цивилизации. Благодаря изобретению появилась возможность исправлять ошибки прошлого, чтобы сделать настоящее лучше. Так же машина дала возможность предотвращать преступления до их реализации. Для этой цели были отобраны лучшие полицейские.
Главный герой - полицейский времени, который уже успел предотвратить огромное количество преступлений благодаря путешествиям сквозь время. Однако все его заслуги меркнут, потому что он неспособен остановить угрозу, намеревающуюся уничтожить Нью-Йорк.

Рейтинг:

MPAA: R - Лицам до 17 лет обязательно присутствие взрослого
Качество: BDRip-AVC
Формат: MKV
Видео кодек:AVC
Аудио кодек:AC3
Видео: AVC, 1032x430 (2.40:1), 2296 kbps, 23,976 fps, 0,216 bpp
Аудио №1: русский / AC3 / 5.1 / 48 kHz / 448 kbps / 16 bit |Авторский (одноголосый) - [Дмитрий Есарев / без цензуры]|
Аудио №2: английский / AC3 / 5.1 / 48 kHz / 448 kbps / 16 bit - (оригинал)


General
Unique ID : 196485172429923455552069950610918756451 (0x93D1AAEFC4EB5960BCC1302EA4A25063)
Complete name : D:\Users\_KaisiK_\uTorrent\КИНО\Predestination.2014.DUAL.BDRip-AVC.AC3.-Vikosol.mkv
Format : Matroska
Format version : Version 4 / Version 2
File size : 2.18 GiB
Duration : 1h 37mn
Overall bit rate : 3 193 Kbps
Encoded date : UTC 2014-11-25 17:14:00
Writing application : mkvmerge v6.8.0 ('Theme for Great Cities') 64bit built on Mar 2 2014 21:34:26
Writing library : libebml v1.3.0 + libmatroska v1.4.1

Video
ID : 1
Format : AVC
Format/Info : Advanced Video Codec
Format profile : High@L4.1
Format settings, CABAC : Yes
Format settings, ReFrames : 12 frames
Codec ID : V_MPEG4/ISO/AVC
Duration : 1h 37mn
Bit rate : 2 296 Kbps
Width : 1 032 pixels
Height : 430 pixels
Display aspect ratio : 2.40:1
Frame rate : 23.976 fps
Color space : YUV
Chroma subsampling : 4:2:0
Bit depth : 8 bits
Scan type : Progressive
Bits/(Pixel*Frame) : 0.216
Stream size : 1.53 GiB (70%)
Writing library : x264 core 142 r2431+42 c69a006 tMod [8-bit@4:2:0 X86_64]
Encoding settings : cabac=1 / ref=12 / deblock=1:-2:-2 / analyse=0x3:0x133 / me=umh / subme=10 / psy=1 / fade_compensate=0.00 / psy_rd=1.00:0.00 / mixed_ref=1 / me_range=48 / chroma_me=1 / trellis=2 / 8x8dct=1 / cqm=0 / deadzone=21,11 / fast_pskip=0 / chroma_qp_offset=-2 / threads=6 / lookahead_threads=1 / sliced_threads=0 / nr=0 / decimate=0 / interlaced=0 / bluray_compat=0 / constrained_intra=0 / fgo=0 / bframes=10 / b_pyramid=2 / b_adapt=2 / b_bias=0 / direct=3 / weightb=1 / open_gop=0 / weightp=2 / keyint=250 / keyint_min=23 / scenecut=40 / intra_refresh=0 / rc_lookahead=60 / rc=2pass / mbtree=0 / bitrate=2296 / ratetol=1.0 / qcomp=0.65 / qpmin=0:0:0 / qpmax=69:69:69 / qpstep=4 / cplxblur=20.0 / qblur=0.5 / vbv_maxrate=50000 / vbv_bufsize=62500 / nal_hrd=none / filler=0 / ip_ratio=1.30 / pb_ratio=1.20 / aq=4:0.70 / aq-sensitivity=10.00 / aq-factor=1.00:1.00:1.00 / aq2=0 / aq3=0
Language : English
Default : Yes
Forced : No
Matrix coefficients : BT.709-5, BT.1361, IEC 61966-2-4 709, SMPTE RP177

Audio #1
ID : 2
Format : AC-3
Format/Info : Audio Coding 3
Mode extension : CM (complete main)
Codec ID : A_AC3
Duration : 1h 37mn
Bit rate mode : Constant
Bit rate : 448 Kbps
Channel(s) : 6 channels
Channel positions : Front: L C R, Side: L R, LFE
Sampling rate : 48.0 KHz
Bit depth : 16 bits
Compression mode : Lossy
Stream size : 313 MiB (14%)
Title : Есарев
Language : Russian
Default : Yes
Forced : No

Audio #2
ID : 3
Format : AC-3
Format/Info : Audio Coding 3
Mode extension : CM (complete main)
Codec ID : A_AC3
Duration : 1h 37mn
Bit rate mode : Constant
Bit rate : 448 Kbps
Channel(s) : 6 channels
Channel positions : Front: L C R, Side: L R, LFE
Sampling rate : 48.0 KHz
Bit depth : 16 bits
Compression mode : Lossy
Stream size : 313 MiB (14%)
Language : English
Default : No
Forced : No

Menu
00:00:00.000 : :Chapter 01
00:06:04.655 : :Chapter 02
00:08:31.677 : :Chapter 03
00:15:55.537 : :Chapter 04
00:22:33.602 : :Chapter 05
00:28:53.273 : :Chapter 06
00:34:25.688 : :Chapter 07
00:41:07.631 : :Chapter 08
00:47:33.058 : :Chapter 09
00:52:05.372 : :Chapter 10
00:58:46.356 : :Chapter 11
01:05:18.831 : :Chapter 12
01:12:06.655 : :Chapter 13
01:17:43.116 : :Chapter 14
01:22:50.382 : :Chapter 15
01:29:37.955 : :Chapter 16

[/code]
pb.wtf



Скачать Предопределение через торрент http://i65.fastpic.ru/big/2014/1203/94/c0e04ce1361369f2967da80efc07ff94.png Скачать, смотреть онлайн Предопределение бесплантно в хорошем качестве Описание: Будущее. Ученые создали машину времени, и с этим изобретением мир вошел в новый виток цивилизации. Благодаря изобретению ... 10 10 2
Торрент: Зарегистрирован [2014-12-03 10:31] · скачан: 90 раз
Статус: √ проверено
Размер: 2.18 GB
Как cкачать? Как скачать Предопределение через торрент | UTorrent

% Раздел Тема Автор DL S | L
Фильмы [HD 720p, 1080p] (Хороший звук DUB, MVO) [ 3.19 GB ] Предопределение / Predestination [2014 BDRip 720p]MVO+Original Assasinca Скачать
1 | 0
Фильмы с авторской озвучкой [ 6.42 GB ] Патруль времени / Предопределение / Predestination [2014 BDRip 720p]AVO[Дмитрий Есарев] + Original Assasinca Скачать
1 | 0
Фильмы (Blu-ray, BD-Remux, HDDVD) [ 19.92 GB ] Патруль времени / Предопределение / Predestination [2014 BDRemux] AVO[Дмитрий Есарев] + Original Ворон Скачать
1 | 0


Последний раз редактировалось: _KaisiK_ (2014-12-23 12:26), всего редактировалось 1 раз

28-11-2019 20:33  

Отключить всю рекламу на сайте

03-12-2014 12:12 Предопределение Скачать торрент  

Где сэмпл?pb.wtf



    Дорогой пользователь! Огромная просьба, поблагодарите релизера, оцените раздачу и оставьте свои комментарий, если Вы скачали Предопределение через торрент бесплатно!
    Комментировать посты могут только пользователи прошедшие не сложную регистрацию
    Показать сообщения:    

    Предопределение через торрент
    Скачать бесплатно Предопределение
    Предопределение скачать торрент
    Предопределение смотреть онлайн
    Cкачать фильм Предопределение бесплатно
    Предопределение скачать торрент в хорошем качестве
    Предопределение смотреть онлайн бесплатно в хорошем качестве


    Вы не можете начинать темы
    Вы не можете отвечать на сообщения
    Вы не можете редактировать свои сообщения
    Вы не можете удалять свои сообщения
    Вы не можете голосовать в опросах
    Вы не можете прикреплять файлы к сообщениям
    Вы можете скачивать файлы