Ссылка на приватное зеркало нашего сайта всего за 1$. Внимание количество ограничено!!!

2 сезон

iTunes

1 сезон

1

iTunes

iTunes

iTunes

1 сезон

RePack

30

ИГРА 18+

pack

ВАЖНО

!!Акция!!

Alien_RageХит недели

RePack

MK11
pack

Забери бонус

RePack

jed

!!Акция!!

Alien_Rage

RePack

fifa19

RePack

Assassins Creed: Odyssey

RePack

NEED FOR SPEED™ PAYBACK

4 сезон

9 сезон

Бесстыжие 9 сезон

Все сериалы

все сериалы на PB.wtf

RePack

FAR CRY 5
  

Окулус / Oculus (Майк Флэнеган) [2013, ужасы, триллер, BDRip 1080p] DUB / Лицензия pb.wtf

Окулус через торрент pb.wtf

Размер: 7.74 GB | Добавлен: 5 лет 10 мес. назад | Торрент скачан:217 раз
Скачать  

04-12-2014 08:05 Окулус Скачать торрент  

Информация о фильме

Русское название: Окулус
Оригинальное название: Oculus
Год выхода: 2013
Жанр: ужасы, триллер
Режиссер: Майк Флэнеган
Выпущено: США
Продолжительность: 01:44:03
Перевод: Дублированный / Лицензия
В ролях: Карен Гиллан, Брентон Туэйтес, Кэти Сакхофф, Рори Кокрейн, Анналиса Бассо, Гаррет Райан, Джеймс Лэфферти, Мигель Сандовал, Кейт Сигел, Скотт Грэхэм


Сюжет фильма

Смерть родителей сильно повлияла на судьбу двух осиротевших детей. По прошествии времени, в двадцатилетнем возрасте, сестра все еще продолжает так считать и хочет доказать брату, что привидение, вышедшее из зеркала, стало причиной гибели близких людей и всех случившихся последующих бед…


Файл

Формат: AVC (библиотека кодирования x.264)
Контейнер (Расширение): MKV
Видео кодек: AVC
Аудио кодек:AC3
Качество: BDRip 1080p (исходник Blu-ray Disc)
Видео: 1920x800, 9593 Кбит/сек, 23,976 кадр/сек, AVC, x264, High@L4.1, 2.40:1, 0.260 Бит/[Пиксели*Кадры]
Аудио 1: AC-3, 448 Кбит/сек, 6 канала(ов), 48,0 КГц - Дублированный / Русский
Аудио 2: AC-3, 640 Кбит/сек, 6 канала(ов), 48,0 КГц - Оригинал / Английский
Субтитры: Русские | Полные, Английские | Полные
Форсированные субтитры: Нет
Чаптеры (Главы): Есть






Сэмпл




Автор Рипа: Сообщество:


скриншот   скриншот   скриншот  

Код:

Format                                   : Matroska
Format version                           : Version 2
File size                                : 7.74 GiB
Duration                                 : 1h 44mn
Overall bit rate                         : 10.6 Mbps
Movie name                               : Окулус.(2013).BDRip.1080p.[envy]
Encoded date                             : UTC 2014-12-03 20:39:59
Writing application                      : mkvmerge v5.8.0 ('No Sleep / Pillow') built on Sep  2 2012 15:37:04
Writing library                          : libebml v1.2.3 + libmatroska v1.3.0

Video
ID                                       : 1
Format                                   : AVC
Format/Info                              : Advanced Video Codec
Format profile                           : High@L4.1
Format settings, CABAC                   : Yes
Format settings, ReFrames                : 5 frames
Codec ID                                 : V_MPEG4/ISO/AVC
Duration                                 : 1h 44mn
Bit rate                                 : 9 593 Kbps
Width                                    : 1 920 pixels
Height                                   : 800 pixels
Display aspect ratio                     : 2.40:1
Frame rate mode                          : Constant
Frame rate                               : 23.976 fps
Color space                              : YUV
Chroma subsampling                       : 4:2:0
Bit depth                                : 8 bits
Scan type                                : Progressive
Bits/(Pixel*Frame)                       : 0.260
Stream size                              : 6.79 GiB (88%)
Title                                    : Окулус.(2013).BDRip.1080p.[envy]
Writing library                          : x264 core 142 r2491 24e4fed
Encoding settings                        : cabac=1 / ref=5 / deblock=1:-3:-3 / analyse=0x3:0x113 / me=umh / subme=11 / psy=1 / psy_rd=1.00:0.00 / mixed_ref=1 / me_range=32 / chroma_me=1 / trellis=2 / 8x8dct=1 / cqm=0 / deadzone=21,11 / fast_pskip=0 / chroma_qp_offset=-2 / threads=12 / lookahead_threads=2 / sliced_threads=0 / nr=0 / decimate=1 / interlaced=0 / bluray_compat=0 / constrained_intra=0 / bframes=8 / b_pyramid=2 / b_adapt=2 / b_bias=0 / direct=3 / weightb=1 / open_gop=0 / weightp=2 / keyint=240 / keyint_min=23 / scenecut=40 / intra_refresh=0 / rc=2pass / mbtree=0 / bitrate=9593 / ratetol=2.0 / qcomp=0.60 / qpmin=0 / qpmax=69 / qpstep=4 / cplxblur=20.0 / qblur=0.5 / ip_ratio=1.40 / pb_ratio=1.30 / aq=2:1.00
Language                                 : English
Default                                  : Yes
Forced                                   : No

Audio #1
ID                                       : 2
Format                                   : AC-3
Format/Info                              : Audio Coding 3
Mode extension                           : CM (complete main)
Format settings, Endianness              : Big
Codec ID                                 : A_AC3
Duration                                 : 1h 44mn
Bit rate mode                            : Constant
Bit rate                                 : 448 Kbps
Channel(s)                               : 6 channels
Channel positions                        : Front: L C R, Side: L R, LFE
Sampling rate                            : 48.0 KHz
Bit depth                                : 16 bits
Compression mode                         : Lossy
Stream size                              : 333 MiB (4%)
Title                                    : Dub
Language                                 : Russian
Default                                  : Yes
Forced                                   : No

Audio #2
ID                                       : 3
Format                                   : AC-3
Format/Info                              : Audio Coding 3
Mode extension                           : CM (complete main)
Format settings, Endianness              : Big
Codec ID                                 : A_AC3
Duration                                 : 1h 44mn
Bit rate mode                            : Constant
Bit rate                                 : 640 Kbps
Channel(s)                               : 6 channels
Channel positions                        : Front: L C R, Side: L R, LFE
Sampling rate                            : 48.0 KHz
Bit depth                                : 16 bits
Compression mode                         : Lossy
Stream size                              : 476 MiB (6%)
Title                                    : Eng
Language                                 : English
Default                                  : No
Forced                                   : No

Text #1
ID                                       : 4
Format                                   : UTF-8
Codec ID                                 : S_TEXT/UTF8
Codec ID/Info                            : UTF-8 Plain Text
Title                                    : full
Language                                 : Russian
Default                                  : No
Forced                                   : No

Text #2
ID                                       : 5
Format                                   : UTF-8
Codec ID                                 : S_TEXT/UTF8
Codec ID/Info                            : UTF-8 Plain Text
Title                                    : full
Language                                 : English
Default                                  : No
Forced                                   : No

Menu
00:00:00.000                             : :Chapter 01
00:03:10.690                             : :Chapter 02
00:07:26.570                             : :Chapter 03
00:12:32.751                             : :Chapter 04
00:14:41.880                             : :Chapter 05
00:19:54.318                             : :Chapter 06
00:24:35.056                             : :Chapter 07
00:30:56.396                             : :Chapter 08
00:34:01.414                             : :Chapter 09
00:39:20.149                             : :Chapter 10
00:42:50.109                             : :Chapter 11
00:46:09.933                             : :Chapter 12
00:51:21.411                             : :Chapter 13
00:54:53.581                             : :Chapter 14
00:57:14.389                             : :Chapter 15
01:01:54.252                             : :Chapter 16
01:08:05.539                             : :Chapter 17
01:11:46.593                             : :Chapter 18
01:14:19.496                             : :Chapter 19
01:19:14.750                             : :Chapter 20
01:23:16.700                             : :Chapter 21
01:28:45.236                             : :Chapter 22
01:34:24.617                             : :Chapter 23
01:37:17.997                             : :Chapter 24



pb.wtf



Скачать Окулус через торрент http://www.firepic.org/images/2014-12/04/p18kbf46csza.png Скачать фильм Окулус через торрент бесплантно в хорошем качестве В ролях: Карен Гиллан, Брентон Туэйтес, Кэти Сакхофф, Рори Кокрейн, Анналиса Бассо, Гаррет Райан, Джеймс Лэфферти, Мигель Сандовал, Кейт ... 10 10 6
Info! Серебряная раздача, засчитывается только 50% скачанного.
Торрент: Зарегистрирован [2014-12-04 08:05] · скачан: 217 раз
Статус: √ проверено
Размер: 7.74 GB
Как cкачать? Как скачать Окулус через торрент | qTorrent

% Раздел Тема Автор DL S | L
Фильмы (Blu-ray, BD-Remux, HDDVD) [ 35.61 GB ] Окулус / Oculus [2013 BluRay 1080p] +[Eng] killermax2013 Скачать
1 | 0

28-11-2019 20:33  

Отключить всю рекламу на сайте

04-12-2014 09:32 Окулус Скачать торрент  

Скорость маловата :search: А так, спасибо))pb.wtf



    Дорогой пользователь! Огромная просьба, поблагодарите релизера, оцените раздачу и оставьте свои комментарий, если Вы скачали Окулус через торрент бесплатно! Внесите свою лепту в развитие PiratBit!
    Комментировать посты могут только пользователи прошедшие не сложную регистрацию
    Показать сообщения:    

    Окулус через торрент
    Скачать бесплатно Окулус
    Окулус скачать торрент
    Окулус смотреть онлайн
    Cкачать фильм Окулус бесплатно
    Окулус скачать торрент в хорошем качестве
    Окулус смотреть онлайн бесплатно в хорошем качестве


    Вы не можете начинать темы
    Вы не можете отвечать на сообщения
    Вы не можете редактировать свои сообщения
    Вы не можете удалять свои сообщения
    Вы не можете голосовать в опросах
    Вы не можете прикреплять файлы к сообщениям
    Вы можете скачивать файлы