Ссылка на приватное зеркало нашего сайта всего за 1$. Внимание количество ограничено!!!

2 сезон

iTunes

1 сезон

1

iTunes

iTunes

iTunes

1 сезон

RePack

30

ИГРА 18+

pack

ВАЖНО

!!Акция!!

Alien_RageХит недели

RePack

MK11
pack

Забери бонус

RePack

jed

!!Акция!!

Alien_Rage

RePack

fifa19

RePack

Assassins Creed: Odyssey

RePack

NEED FOR SPEED™ PAYBACK

4 сезон

9 сезон

Бесстыжие 9 сезон

Все сериалы

все сериалы на PB.wtf

RePack

FAR CRY 5
  

Педаль до упора / Børning (Халлвард Браэин / Hallvard Bræin) [2014, Норвегия, боевик, комедия, HDRip, Любительский (одноголосый)] pb.wtf

Педаль до упора через торрент pb.wtf

Размер: 1.37 GB | Добавлен: 5 лет 10 мес. назад | Торрент скачан:290 раз
Скачать  

04-12-2014 09:05 Педаль до упора Скачать торрент  

Педаль до упора / Børning

Год выпуска: 2014
Страна: Норвегия
Жанр: боевик, комедия
Продолжительность: 01:32:52
Перевод: Любительский (одноголосый)[Andi]
Субтитры: Отсутствует
Режиссер: Халлвард Браэин / Hallvard Bræin
В ролях:


Ларс Аренц-Хансен (Advokaten), Андерс Баасмо Кристиансен (Roy), Камилла Фрэй (Linda), Марсело Галван (Scared hitchhiker), Тронд Хальбо (TT), Отто Есперсен (Nybakken), Oskar Sandven Lundevold (Jimmy), Хенрик Местад (Phillip Mork), Свен Нордин (Doffen), Стейнар Саген, Дженни Скавлан (Sylvia), Trygve Svindland (Osvald)

Описание:
У Роя одна, но пламенная страсть - гонки. И как раз, когда он готовится к важному соревнованию, на горизонте появляется 14-летняя дочь, требующая к себе повышенного внимания. Увлекшись выяснением отношений с ребенком, Рой проигрывает заезд, и теперь у него только один шанс восстановить свою репутацию - участие в гонке «Северный Мыс». Кто первым доберется из Осло до самой северной точки Норвегии, тот и будет признан величайшим гонщиком всех времен и народов...

Рейтинг:
Бюджет: NOK 25 000 000
Качество: HDRip
Формат: AVI
Видео кодек:XviD
Аудио кодек:AC3
Видео: XviD, 720x304 (2.35:1), 1649 kbps, 24 fps, 0,314 bpp
Аудио: AC3 / 5.1 / 48 kHz / 448 kbps / 16 bit

General
Complete name : D:\Users\_KaisiK_\uTorrent\КИНО\Pedal.do.upora.2014.L1.HDRip.1400Mb.avi
Format : AVI
Format/Info : Audio Video Interleave
File size : 1.37 GiB
Duration : 1h 32mn
Overall bit rate : 2 107 Kbps
Writing application : VirtualDubMod 1.5.10.3 | www.virtualdub-fr.org || (build 2550/release)
Writing library : VirtualDubMod build 2550/release

Video
ID : 0
Format : MPEG-4 Visual
Format profile : Advanced Simple@L5
Format settings, BVOP : 2
Format settings, QPel : No
Format settings, GMC : No warppoints
Format settings, Matrix : Default (MPEG)
Codec ID : XVID
Codec ID/Hint : XviD
Duration : 1h 32mn
Bit rate : 1 650 Kbps
Width : 720 pixels
Height : 304 pixels
Display aspect ratio : 2.35:1
Frame rate : 24.000 fps
Color space : YUV
Chroma subsampling : 4:2:0
Bit depth : 8 bits
Scan type : Progressive
Compression mode : Lossy
Bits/(Pixel*Frame) : 0.314
Stream size : 1.07 GiB (78%)
Writing library : XviD 1.2.1 (UTC 2008-12-04)

Audio
ID : 1
Format : AC-3
Format/Info : Audio Coding 3
Mode extension : CM (complete main)
Codec ID : 2000
Duration : 1h 32mn
Bit rate mode : Constant
Bit rate : 448 Kbps
Channel(s) : 6 channels
Channel positions : Front: L C R, Side: L R, LFE
Sampling rate : 48.0 KHz
Bit depth : 16 bits
Compression mode : Lossy
Stream size : 298 MiB (21%)
Alignment : Split accross interleaves
Interleave, duration : 42 ms (1.00 video frame)
Interleave, preload duration : 500 ms

[/code]
pb.wtf



Скачать Педаль до упора через торрент http://i64.fastpic.ru/big/2014/1204/85/b4276e13e0681a361e545cc1459e3385.png Скачать фильм Педаль до упора через торрент бесплантно в хорошем качестве Описание: У Роя одна, но пламенная страсть - гонки. И как раз, когда он готовится к важному соревнованию, на горизонте появляется 14-летняя ... 9.1 10 9
Торрент: Зарегистрирован [2014-12-04 09:05] · скачан: 290 раз
Статус: T временная
Размер: 1.37 GB
Как cкачать? Как скачать Педаль до упора через торрент | qTorrent

% Раздел Тема Автор DL S | L
Фильмы [HD 720p, 1080p] (Хороший звук DUB, MVO) [ 6.21 GB ] Скандинавский форсаж / Педаль до упора / Børning [2014 BDRip 1080p] killermax2013 Скачать
1 | 0
Фильмы (Blu-ray, BD-Remux, HDDVD) [ 26.29 GB ] Скандинавский форсаж / Педаль до упора / Børning [2014 Blu-Ray Remux 1080p] killermax2013 Скачать
1 | 0
T Фильмы 2014 (Звук TS, Cam, VO, DVO) [ 1.74 GB ] Педаль до упора / Borning / Børning [2014 Норвегия DVDRip] VO + Sub Rus Nor + Original Nor Ворон Скачать
1 | 0

28-11-2019 20:33  

Отключить всю рекламу на сайте

08-12-2014 03:54 Педаль до упора Скачать торрент  

Замечательный фильм-посмотрел с большим удовольствиемpb.wtf



    Дорогой пользователь! Огромная просьба, поблагодарите релизера, оцените раздачу и оставьте свои комментарий, если Вы скачали Педаль до упора через торрент бесплатно! Внесите свою лепту в развитие PiratBit!
    Комментировать посты могут только пользователи прошедшие не сложную регистрацию
    Показать сообщения:    

    Педаль до упора через торрент
    Скачать бесплатно Педаль до упора
    Педаль до упора скачать торрент
    Педаль до упора смотреть онлайн
    Cкачать фильм Педаль до упора бесплатно
    Педаль до упора скачать торрент в хорошем качестве
    Педаль до упора смотреть онлайн бесплатно в хорошем качестве


    Вы не можете начинать темы
    Вы не можете отвечать на сообщения
    Вы не можете редактировать свои сообщения
    Вы не можете удалять свои сообщения
    Вы не можете голосовать в опросах
    Вы не можете прикреплять файлы к сообщениям
    Вы можете скачивать файлы