2 сезон

iTunes

MVO

1

2 сезон

iTunes

iTunes

1 сезон

RePack

30

Новинка

ВАЖНО

ИГРА 18+

pack

RePack

MK11
pack

Легкие деньги

RePack

jed

RePack

fifa19

RePack

RDR2

RePack

NEED FOR SPEED™ PAYBACK

4 сезон

9 сезон

Бесстыжие 9 сезон

Все сериалы

все сериалы на PB.wtf

RePack

FAR CRY 5

Anonymous, добрый вечер, мы не успеваем собрать деньги на оплату серверов за декабрь и январь, помогите нам пожалуйста в это трудное время. В качестве благодарности мы отключим Вам всю рекламу на сайте (укажите свой ник в строку Ваше имя)!

×
  
Magnet ссылка

Рождество в Конуэе / Christmas in Conway (Джон Кент Харрисон / John Kent Harrison) [2013, США, драма, мелодрама, WEB-DLRip, Дубляж - Лицензия / iTunes] pb.wtf

Рождество в Конуэе через торрент pb.wtf

Размер: 1.46 GB | Добавлен: 6 лет 1 мес. назад | Торрент скачан:102 раза
Скачать  

04-12-2014 09:34 Рождество в Конуэе Скачать торрент  

Рождество в Конуэе / Christmas in Conway«He gave her a gift this town will never forget»
Год выпуска: 2013
Страна: США
Жанр: драма, мелодрама
Продолжительность: 01:36:37
Перевод: Дубляж - [Лицензия / iTunes]
Субтитры: Отсутствует
Режиссер: Джон Кент Харрисон / John Kent Harrison
В ролях:


Энди Гарсиа (Duncan Mayor), Мэнди Мур (Natalie Springer), Шери Отери (Gayle Matthews), Райли Смит (Tommy Harris), Мэри-Луиз Паркер (Suzy Mayor), Рик Рейц (Sheriff Charlie), Марк Джеффри Миллер (Henry), Грег Перроу (Brian), Джейсон Дэвис (Doctor Emmons), Андреа Пауэлл (Jean), Барбара Уитман (Patty), Теодус Крэйн (Lonnie)

Описание:
Сюзи недавно выписали из больницы, и ей нужен круглосуточный уход. Ее муж Дункан решает, что лучшее лекарство для Сюзи (и рождественский подарок, который она никогда не забудет) - это поездка на настоящем колесе обозрения, установленном в их собственном дворе. Почему именно колесо обозрения? Потому что в кабине такого колеса много лет назад Дункан сделал Сюзи предложение.

Рейтинг:

Качество: WEB-DLRip
Формат: AVI
Видео кодек:XviD
Аудио кодек:AC3
Видео: XviD, 720x400 (16:9), 1770 kbps, 23,976 fps, 0,256 bpp
Аудио: AC3 / 5.1 / 48 kHz / 384 kbps / 16 bit

General
Complete name : D:\Users\_KaisiK_\uTorrent\КИНО\Chr1stm4s.in.C0Hw4y.2013.P.WEBDLRip.1.46GB.avi
Format : AVI
Format/Info : Audio Video Interleave
File size : 1.46 GiB
Duration : 1h 36mn
Overall bit rate : 2 164 Kbps
Writing application : VirtualDubMod 1.5.10.3 | www.virtualdub-fr.org || (build 2550/release)
Writing library : VirtualDubMod build 2550/release

Video
ID : 0
Format : MPEG-4 Visual
Format profile : Advanced Simple@L5
Format settings, BVOP : 2
Format settings, QPel : No
Format settings, GMC : No warppoints
Format settings, Matrix : Default (MPEG)
Codec ID : XVID
Codec ID/Hint : XviD
Duration : 1h 36mn
Bit rate : 1 771 Kbps
Width : 720 pixels
Height : 400 pixels
Display aspect ratio : 16:9
Frame rate : 23.976 fps
Color space : YUV
Chroma subsampling : 4:2:0
Bit depth : 8 bits
Scan type : Progressive
Compression mode : Lossy
Bits/(Pixel*Frame) : 0.256
Stream size : 1.20 GiB (82%)
Writing library : XviD 1.2.1 (UTC 2008-12-04)

Audio
ID : 1
Format : AC-3
Format/Info : Audio Coding 3
Mode extension : CM (complete main)
Codec ID : 2000
Duration : 1h 36mn
Bit rate mode : Constant
Bit rate : 384 Kbps
Channel(s) : 6 channels
Channel positions : Front: L C R, Side: L R, LFE
Sampling rate : 48.0 KHz
Bit depth : 16 bits
Compression mode : Lossy
Stream size : 265 MiB (18%)
Alignment : Split accross interleaves
Interleave, duration : 42 ms (1.00 video frame)
Interleave, preload duration : 500 ms

[/code]
pb.wtf



Скачать Рождество в Конуэе через торрент http://i68.fastpic.ru/big/2014/1204/12/261bdb71bed6beae3494a91a4177a812.png Скачать фильм Рождество в Конуэе через торрент бесплантно в хорошем качестве Описание: Сюзи недавно выписали из больницы, и ей нужен круглосуточный уход. Ее муж Дункан решает, что лучшее лекарство для Сюзи (и ... 10 10 7
Торрент: Зарегистрирован [2014-12-04 09:34] · скачан: 102 раз
Статус: √ проверено
Размер: 1.46 GB
Как cкачать? Как скачать Рождество в Конуэе через торрент | UTorrent

28-11-2019 20:33  

Отключить всю рекламу на сайте

    Дорогой пользователь! Огромная просьба, поблагодарите релизера, оцените раздачу и оставьте свои комментарий, если Вы скачали Рождество в Конуэе через торрент бесплатно! Внесите свою лепту в развитие PiratBit!
    Комментировать посты могут только пользователи прошедшие не сложную регистрацию
    Показать сообщения:    

    Рождество в Конуэе через торрент
    Скачать бесплатно Рождество в Конуэе
    Рождество в Конуэе скачать торрент
    Рождество в Конуэе смотреть онлайн
    Cкачать фильм Рождество в Конуэе бесплатно
    Рождество в Конуэе скачать торрент в хорошем качестве
    Рождество в Конуэе смотреть онлайн бесплатно в хорошем качестве


    Вы не можете начинать темы
    Вы не можете отвечать на сообщения
    Вы не можете редактировать свои сообщения
    Вы не можете удалять свои сообщения
    Вы не можете голосовать в опросах
    Вы не можете прикреплять файлы к сообщениям
    Вы можете скачивать файлы