2 сезон

iTunes

1 сезон

1

iTunes

iTunes

iTunes

1 сезон

RePack

30

ИГРА 18+

pack

ВАЖНО

!!Акция!!

Alien_RageХит недели

RePack

MK11
pack

Забери бонус

RePack

jed

!!Акция!!

Alien_Rage

RePack

fifa19

RePack

Assassins Creed: Odyssey

RePack

NEED FOR SPEED™ PAYBACK

4 сезон

9 сезон

Бесстыжие 9 сезон

Все сериалы

все сериалы на PB.wtf

RePack

FAR CRY 5
  

Железная хватка / True Grit (Итэн Коэн, Джоэл Коэн ) [2010, вестерн, BDRip 1080p] Dub + DVO + AVO + Original + Subs pb.wtf

Железная хватка через торрент pb.wtf

Размер: 11.37 GB | Добавлен: 5 лет 10 мес. назад | Торрент скачан:236 раз
Скачать  

04-12-2014 14:15 Железная хватка Скачать торрент  


Железная хватка / True Grit
«Расплата наступит»

Год выпуска:2010
Страна: США
Жанр:драма, приключения, вестерн
Продолжительность:01:50:20
Перевод:Дубляж - [Лицензия]
Субтитры: русские (REN), русские (Goblin), английские,
Режиссер:Итан Коэн , Джоэл Коэн

  • В ролях:

    Джефф Бриджес (Rooster Cogburn), Хейли Стайнфелд (Mattie Ross), Мэтт Дэймон (LaBoeuf), Джош Бролин (Tom Chaney), Барри Пеппер (Lucky Ned Pepper), Дэкин Мэтьюз (Col. Stonehill), Ярлат Конрой (Undertaker), Пол Рэй (Emmett Quincy), Донал Глисон (Moon (The Kid)), Элизабет Марвел (40-Year-Old Mattie), Рой Ли Джонс (Yarnell), Эд Корбин (Bear Man)
  • Описание:
    В этом фильме рассказывается история 14-летней девочки, стареющего судебного пристава Рустера Когберна и ещё одного законника. Вместе они идут по следам убийцы отца девочки, которые ведут во враждебную индейскую территорию.

  • Мировая премьера:14 декабря 2010

    Качество: BDRip 1080p
    Формат:MKV
    Видео кодек: AVC
    Аудио кодек:AC3, DTS
    Видео: AVC, 1920x816 (2.35:1), 12598 kbps, 23,976 fps, 0,335 bpp
    Аудио №1: русский / AC3 / 5.1 / 48 kHz / 640 kbps / 16 bit ||
    Аудио №2: английский / DTS / 5.1 / 48 kHz / 1510 kbps / 24 bit
    Навигация по главам: есть


    Код:

    General
    Unique ID                                : 231427325271217395389205413229562299517 (0xAE1B4814E6BA62FEBDB366F2A10E047D)
    Complete name                            : D:\Торенты\Раздачи\Железная хватка (True Grit) [2010, BDRip 1080p, Dub + Orig + Subs].mkv
    Format                                   : Matroska
    Format version                           : Version 2
    File size                                : 11.4 GiB
    Duration                                 : 1h 50mn
    Overall bit rate                         : 14.7 Mbps
    Encoded date                             : UTC 2011-06-07 16:10:44
    Writing application                      : mkvmerge v4.5.0 ('Speed of Light') built on Feb  1 2011 02:10:32
    Writing library                          : libebml v1.2.0 + libmatroska v1.1.0
    Attachment                               : Yes

    Video
    ID                                       : 1
    Format                                   : AVC
    Format/Info                              : Advanced Video Codec
    Format profile                           : High@L4.1
    Format settings, CABAC                   : Yes
    Format settings, ReFrames                : 5 frames
    Codec ID                                 : V_MPEG4/ISO/AVC
    Duration                                 : 1h 50mn
    Bit rate                                 : 12.6 Mbps
    Width                                    : 1 920 pixels
    Height                                   : 816 pixels
    Display aspect ratio                     : 2.35:1
    Frame rate                               : 23.976 fps
    Color space                              : YUV
    Chroma subsampling                       : 4:2:0
    Bit depth                                : 8 bits
    Scan type                                : Progressive
    Bits/(Pixel*Frame)                       : 0.335
    Stream size                              : 9.48 GiB (83%)
    Title                                    : True.Grit.2011.BluRay.1080p.DTS.x264-CHD
    Writing library                          : x264 core 114 r1924 08d04a4
    Encoding settings                        : cabac=1 / ref=5 / deblock=1:-3:-3 / analyse=0x3:0x113 / me=umh / subme=10 / psy=1 / psy_rd=1.05:0.10 / mixed_ref=1 / me_range=48 / chroma_me=1 / trellis=2 / 8x8dct=1 / cqm=2 / deadzone=21,11 / fast_pskip=0 / chroma_qp_offset=-2 / threads=12 / sliced_threads=0 / nr=0 / decimate=1 / interlaced=0 / constrained_intra=0 / bframes=6 / b_pyramid=2 / b_adapt=2 / b_bias=0 / direct=3 / weightb=1 / open_gop=0 / weightp=2 / keyint=250 / keyint_min=23 / scenecut=40 / intra_refresh=0 / rc_lookahead=60 / rc=2pass / mbtree=1 / bitrate=12598 / ratetol=1.0 / qcomp=0.70 / qpmin=1 / qpmax=63 / qpstep=4 / cplxblur=20.0 / qblur=0.5 / vbv_maxrate=40000 / vbv_bufsize=40000 / nal_hrd=none / ip_ratio=1.40 / aq=2:0.80
    Language                                 : English
    Default                                  : No
    Forced                                   : No

    Audio #1
    ID                                       : 2
    Format                                   : AC-3
    Format/Info                              : Audio Coding 3
    Mode extension                           : CM (complete main)
    Codec ID                                 : A_AC3
    Duration                                 : 1h 50mn
    Bit rate mode                            : Constant
    Bit rate                                 : 640 Kbps
    Channel(s)                               : 6 channels
    Channel positions                        : Front: L C R, Side: L R, LFE
    Sampling rate                            : 48.0 KHz
    Bit depth                                : 16 bits
    Compression mode                         : Lossy
    Stream size                              : 505 MiB (4%)
    Language                                 : Russian
    Default                                  : Yes
    Forced                                   : No

    Audio #2
    ID                                       : 3
    Format                                   : DTS
    Format/Info                              : Digital Theater Systems
    Codec ID                                 : A_DTS
    Duration                                 : 1h 50mn
    Bit rate mode                            : Constant
    Bit rate                                 : 1 510 Kbps
    Channel(s)                               : 6 channels
    Channel positions                        : Front: L C R, Side: L R, LFE
    Sampling rate                            : 48.0 KHz
    Bit depth                                : 24 bits
    Compression mode                         : Lossy
    Delay relative to video                  : 11ms
    Stream size                              : 1.16 GiB (10%)
    Language                                 : English
    Default                                  : No
    Forced                                   : No

    Text #1
    ID                                       : 4
    Format                                   : UTF-8
    Codec ID                                 : S_TEXT/UTF8
    Codec ID/Info                            : UTF-8 Plain Text
    Title                                    : REN
    Language                                 : Russian
    Default                                  : No
    Forced                                   : No

    Text #2
    ID                                       : 5
    Format                                   : UTF-8
    Codec ID                                 : S_TEXT/UTF8
    Codec ID/Info                            : UTF-8 Plain Text
    Title                                    : Goblin
    Language                                 : Russian
    Default                                  : No
    Forced                                   : No

    Text #3
    ID                                       : 6
    Format                                   : UTF-8
    Codec ID                                 : S_TEXT/UTF8
    Codec ID/Info                            : UTF-8 Plain Text
    Language                                 : English
    Default                                  : No
    Forced                                   : No

    Menu
    00:00:00.000                             : en:Chapter 01
    00:12:42.887                             : en:Chapter 02
    00:23:59.354                             : en:Chapter 03
    00:34:06.502                             : en:Chapter 04
    00:46:20.110                             : en:Chapter 05
    00:59:31.192                             : en:Chapter 06
    01:18:30.414                             : en:Chapter 07
    01:32:04.977                             : en:Chapter 08
    01:41:00.929                             : en:Chapter 09
    01:45:59.144                             : en:Chapter 10

    Скриншоты:

    Каталог Новинок (Фильмы-трейлеры, Игры, Сериалы, Мультфильмы)

    © Оформление by Ворон
    pb.wtf



  • Скачать Железная хватка через торрент http://pic.kartinco.top/images/6/ordi9.jpg Скачать фильм Железная хватка через торрент бесплантно в хорошем качестве Описание:В этом фильме рассказывается история 14-летней девочки, стареющего судебного пристава Рустера Когберна и ещё одного законника. ... 9 10 11
    Торрент: Зарегистрирован [2014-12-04 14:15] · скачан: 236 раз
    Статус: √ проверено
    Размер: 11.37 GB
    Как cкачать? Как скачать Железная хватка через торрент | qTorrent

    28-11-2019 20:33  

    Отключить всю рекламу на сайте

    04-12-2014 14:32 Железная хватка Скачать торрент  

    зачетный фильмецpb.wtf



    04-12-2014 16:29 Железная хватка Скачать торрент  

    kaa1978 писал(а):

    зачетный фильмец

    Согласенpb.wtf



      Дорогой пользователь! Огромная просьба, поблагодарите релизера, оцените раздачу и оставьте свои комментарий, если Вы скачали Железная хватка через торрент бесплатно! Внесите свою лепту в развитие PiratBit!
      Комментировать посты могут только пользователи прошедшие не сложную регистрацию
      Показать сообщения:    

      Железная хватка через торрент
      Скачать бесплатно Железная хватка
      Железная хватка скачать торрент
      Железная хватка смотреть онлайн
      Cкачать фильм Железная хватка бесплатно
      Железная хватка скачать торрент в хорошем качестве
      Железная хватка смотреть онлайн бесплатно в хорошем качестве


      Вы не можете начинать темы
      Вы не можете отвечать на сообщения
      Вы не можете редактировать свои сообщения
      Вы не можете удалять свои сообщения
      Вы не можете голосовать в опросах
      Вы не можете прикреплять файлы к сообщениям
      Вы можете скачивать файлы