Ссылка на приватное зеркало нашего сайта всего за 1$. Внимание количество ограничено!!!

2 сезон

iTunes

1 сезон

1

iTunes

iTunes

iTunes

1 сезон

RePack

30

ИГРА 18+

pack

ВАЖНО

!!Акция!!

Alien_RageХит недели

RePack

MK11
pack

Забери бонус

RePack

jed

!!Акция!!

Alien_Rage

RePack

fifa19

RePack

Assassins Creed: Odyssey

RePack

NEED FOR SPEED™ PAYBACK

4 сезон

9 сезон

Бесстыжие 9 сезон

Все сериалы

все сериалы на PB.wtf

RePack

FAR CRY 5
  

Зал Джимми / Jimmy's Hall (Кен Лоуч ) [2014, драма, история, HDRip, Любительский (одноголосый) [Pashaup] pb.wtf

Зал Джимми через торрент pb.wtf

Размер: 2.05 GB | Добавлен: 5 лет 10 мес. назад | Торрент скачан:40 раз
Скачать  

04-12-2014 15:25 Зал Джимми Скачать торрент  


Зал Джимми / Jimmy's Hall
«Where Anything Goes and Everyone Belongs»

Год выпуска:2014
Страна: Великобритания, Ирландия, Франция
Жанр:драма, история
Продолжительность:01:49:13
Перевод:Любительский (одноголосый) [Pashaup]
Режиссер:Кен Лоуч

  • В ролях:

    Бэрри Уорд (James Gralton), Симона Кирби (Oonagh), Эндрю Скотт (Father Seamus), Джим Нортон (Father Sheridan), Брайан Ф. О’Бирн (O'Keefe), Shane Cullen (Guard), Paul Fox, Сорча Фокс (Molly), Эйслинг Франсиози (Marie), Карл Джиари (Seán), Денис Гоф (Tess), Эйлин Генри (Alice)
  • Описание:
    Действие развивается в 1932 году в Ирландии, куда из Нью-Йорка возвращается главный герой, коммунист Джеймс Гролтон, чтобы открыть танцевальный зал, которым он управлял в 1921 году...

  • Мировая премьера:22 мая 2014

    Качество: HDRip
    Формат:AVI
    Видео кодек: XviD
    Аудио кодек:AC3
    Видео: XviD, 720x392 (1.850), 1909 kbps, 23,976 fps, 0,282 bpp
    Аудио №1: AC3 / 5.1 / 48 kHz / 384 kbps / Russian
    Аудио №2: AC3 / 5.1 / 44 kHz / 384 kbps / English


    Код:

    General
    Complete name                            : D:\Торенты\Зал Джимми.2014.avi
    Format                                   : AVI
    Format/Info                              : Audio Video Interleave
    Format profile                           : OpenDML
    File size                                : 2.05 GiB
    Duration                                 : 1h 49mn
    Overall bit rate                         : 2 693 Kbps
    Writing application                      : XviD4PSP 6.0 / 54.29.105

    Video
    ID                                       : 0
    Format                                   : MPEG-4 Visual
    Format profile                           : Advanced Simple@L5
    Format settings, BVOP                    : 3
    Format settings, QPel                    : No
    Format settings, GMC                     : 3 warppoints
    Format settings, Matrix                  : Default (H.263)
    Codec ID                                 : XVID
    Codec ID/Hint                            : XviD
    Duration                                 : 1h 49mn
    Bit rate                                 : 1 909 Kbps
    Width                                    : 720 pixels
    Height                                   : 392 pixels
    Display aspect ratio                     : 1.850
    Frame rate                               : 23.976 fps
    Color space                              : YUV
    Chroma subsampling                       : 4:2:0
    Bit depth                                : 8 bits
    Scan type                                : Progressive
    Compression mode                         : Lossy
    Bits/(Pixel*Frame)                       : 0.282
    Stream size                              : 1.46 GiB (71%)
    Writing library                          : XviD 64

    Audio #1
    ID                                       : 1
    Format                                   : AC-3
    Format/Info                              : Audio Coding 3
    Mode extension                           : CM (complete main)
    Codec ID                                 : 2000
    Duration                                 : 1h 49mn
    Bit rate mode                            : Constant
    Bit rate                                 : 384 Kbps
    Channel(s)                               : 6 channels
    Channel positions                        : Front: L C R, Side: L R, LFE
    Sampling rate                            : 48.0 KHz
    Bit depth                                : 16 bits
    Compression mode                         : Lossy
    Stream size                              : 300 MiB (14%)
    Alignment                                : Aligned on interleaves
    Interleave, duration                     : 32 ms (0.77 video frame)

    Audio #2
    ID                                       : 2
    Format                                   : AC-3
    Format/Info                              : Audio Coding 3
    Mode extension                           : CM (complete main)
    Codec ID                                 : 2000
    Duration                                 : 1h 49mn
    Bit rate mode                            : Constant
    Bit rate                                 : 384 Kbps
    Channel(s)                               : 6 channels
    Channel positions                        : Front: L C R, Side: L R, LFE
    Sampling rate                            : 44.1 KHz
    Bit depth                                : 16 bits
    Compression mode                         : Lossy
    Stream size                              : 300 MiB (14%)
    Alignment                                : Aligned on interleaves
    Interleave, duration                     : 35 ms (0.84 video frame)

    Скриншоты:

    Каталог Новинок (Фильмы-трейлеры, Игры, Сериалы, Мультфильмы)

    © Оформление by Ворон
    pb.wtf



  • Скачать Зал Джимми через торрент http://pic.kartinco.top/images/6/ordi9.jpg Скачать фильм Зал Джимми через торрент бесплантно в хорошем качестве Описание:Действие развивается в 1932 году в Ирландии, куда из Нью-Йорка возвращается главный герой, коммунист Джеймс Гролтон, чтобы открыть ... 10 10 3
    Торрент: Зарегистрирован [2014-12-04 15:25] · скачан: 40 раз
    Статус: T временная
    Размер: 2.05 GB
    Как cкачать? Как скачать Зал Джимми через торрент | qTorrent

    28-11-2019 20:33  

    Отключить всю рекламу на сайте

      Дорогой пользователь! Огромная просьба, поблагодарите релизера, оцените раздачу и оставьте свои комментарий, если Вы скачали Зал Джимми через торрент бесплатно! Внесите свою лепту в развитие PiratBit!
      Комментировать посты могут только пользователи прошедшие не сложную регистрацию
      Показать сообщения:    

      Зал Джимми через торрент
      Скачать бесплатно Зал Джимми
      Зал Джимми скачать торрент
      Зал Джимми смотреть онлайн
      Cкачать фильм Зал Джимми бесплатно
      Зал Джимми скачать торрент в хорошем качестве
      Зал Джимми смотреть онлайн бесплатно в хорошем качестве


      Вы не можете начинать темы
      Вы не можете отвечать на сообщения
      Вы не можете редактировать свои сообщения
      Вы не можете удалять свои сообщения
      Вы не можете голосовать в опросах
      Вы не можете прикреплять файлы к сообщениям
      Вы можете скачивать файлы