2 сезон

iTunes

MVO

1

2 сезон

iTunes

iTunes

1 сезон

RePack

30

Ultimate

ВАЖНО

ИГРА 18+

pack

RePack

MK11
pack

Легкие деньги

RePack

jed

RePack

fifa19

RePack

RDR2

RePack

NEED FOR SPEED™ PAYBACK

4 сезон

9 сезон

Бесстыжие 9 сезон

Все сериалы

все сериалы на PB.wtf

RePack

FAR CRY 5

Anonymous, доброй ночи, мы не успеваем собрать деньги на оплату серверов за декабрь и январь, помогите нам пожалуйста в это трудное время. В качестве благодарности мы отключим Вам всю рекламу на сайте (укажите свой ник в строку Ваше имя)!

×
  
Magnet ссылка

Черное Рождество / Black Nativity (Кейси Леммонс ) [2013, мюзикл, драма, HDRip, Профессиональный многоголосый [Чистый звук] pb.wtf

Черное Рождество через торрент pb.wtf

Размер: 1.46 GB | Добавлен: 6 лет 1 мес. назад | Торрент скачан:39 раз
Скачать  

04-12-2014 20:08 Черное Рождество Скачать торрент  


Черное Рождество / Black Nativity


Год выпуска: 2013
Страна:США
Жанр:мюзикл, драма
Продолжительность: 01:32:53
Перевод:Профессиональный многоголосый [Чистый звук]
Режиссер:Кейси Леммонс
В ролях:

Форест Уитакер (Reverend Cornell Cobbs), Анджела Бассетт (Aretha Cobbs), Дженнифер Хадсон (Naima), Тайриз Гибсон (Loot / Tyson), Джейкоб Латимор (Langston), Мэри Джей Блайдж (Angel), Нас (Street Prophet (Isaiah)), Вонди Куртис-Холл (Pawnbroker), Люк Бойд (Jo-Jo / Joseph), Grace Gibson (Maria / Mary), Ротими (Officer Butch McDaniels), Джамал Маллори-МакКри (Kyle)
  • Описание:
    В центре картины находится подросток Лэнгстон, воспитанный своей матерью-одиночкой, из-за чего жизнь Лэнгстона никогда не казалась сладкой и очаровательной. Вскоре Лэнгстон соберется в Нью-Йорк, ведь именно в этом чудесном городе подростку предстоит встретить Рождество, а также навестить своих родственников, представленных преподобным отцом Корнеллом и его женой Аретой. Однако Лэнгстона сразу поставили перед фактом, что ему запрещено нарушать традиции в семье его родственников, с чем попросту не согласен подросток. И теперь Лэнгстон решает отправиться обратно к своей матери, чтобы вместе с ней и встретить столь замечательный праздник. Но путь у подростка будет невероятно увлекательным...


    Качество:HDRip
    Формат:AVI
    Видео кодек: XviD
    Аудио кодек:AC3
    Видео: XviD, 720x304 (2.35:1), 1917 kbps, 23,976 fps, 0,365 bpp
    Аудио: AC3 / 2.0 / 44 kHz / 320 kbps / 16 bit

    Код:

    General
    Complete name                            : D:\Торенты\Black.Nativity.2013.HDRip..avi
    Format                                   : AVI
    Format/Info                              : Audio Video Interleave
    File size                                : 1.46 GiB
    Duration                                 : 1h 32mn
    Overall bit rate                         : 2 246 Kbps
    Movie name                               : B
    Director                                 : [
    Writing application                      : V
    Copyright                                : [

    Video
    ID                                       : 0
    Format                                   : MPEG-4 Visual
    Format profile                           : Advanced Simple@L5
    Format settings, BVOP                    : 2
    Format settings, QPel                    : No
    Format settings, GMC                     : No warppoints
    Format settings, Matrix                  : Custom
    Codec ID                                 : XVID
    Codec ID/Hint                            : XviD
    Duration                                 : 1h 32mn
    Bit rate                                 : 1 917 Kbps
    Width                                    : 720 pixels
    Height                                   : 304 pixels
    Display aspect ratio                     : 2.35:1
    Frame rate                               : 23.976 fps
    Color space                              : YUV
    Chroma subsampling                       : 4:2:0
    Bit depth                                : 8 bits
    Scan type                                : Progressive
    Compression mode                         : Lossy
    Bits/(Pixel*Frame)                       : 0.365
    Stream size                              : 1.24 GiB (85%)
    Writing library                          : XviD 1.2.1 (UTC 2008-12-04)

    Audio
    ID                                       : 1
    Format                                   : AC-3
    Format/Info                              : Audio Coding 3
    Mode extension                           : CM (complete main)
    Codec ID                                 : 2000
    Duration                                 : 1h 32mn
    Bit rate mode                            : Constant
    Bit rate                                 : 320 Kbps
    Channel(s)                               : 2 channels
    Channel positions                        : Front: L R
    Sampling rate                            : 44.1 KHz
    Bit depth                                : 16 bits
    Compression mode                         : Lossy
    Stream size                              : 213 MiB (14%)
    Alignment                                : Split accross interleaves
    Interleave, duration                     : 42 ms (1.00 video frame)
    Interleave, preload duration             : 500 ms


    Скриншоты:

    Каталог Новинок (Фильмы-трейлеры, Игры, Сериалы, Мультфильмы)

    © Оформление by Ворон
    pb.wtf



  • Скачать Черное Рождество через торрент https://pic.kartinco.top/images/6/ordi9.jpg Скачать фильм Черное Рождество через торрент бесплантно в хорошем качестве Описание:В центре картины находится подросток Лэнгстон, воспитанный своей матерью-одиночкой, из-за чего жизнь Лэнгстона никогда не казалась ... 7.8 10 8
    Торрент: Зарегистрирован [2014-12-04 20:13] · скачан: 39 раз
    Статус: T временная
    Размер: 1.46 GB
    Как cкачать? Как скачать Черное Рождество через торрент | UTorrent

    28-11-2019 20:33  

    Отключить всю рекламу на сайте

    05-12-2014 17:33 Черное Рождество Скачать торрент  

    Действительно Черное одни нигеры sarcasticpb.wtf



      Дорогой пользователь! Огромная просьба, поблагодарите релизера, оцените раздачу и оставьте свои комментарий, если Вы скачали Черное Рождество через торрент бесплатно! Внесите свою лепту в развитие PiratBit!
      Комментировать посты могут только пользователи прошедшие не сложную регистрацию
      Показать сообщения:    

      Черное Рождество через торрент
      Скачать бесплатно Черное Рождество
      Черное Рождество скачать торрент
      Черное Рождество смотреть онлайн
      Cкачать фильм Черное Рождество бесплатно
      Черное Рождество скачать торрент в хорошем качестве
      Черное Рождество смотреть онлайн бесплатно в хорошем качестве


      Вы не можете начинать темы
      Вы не можете отвечать на сообщения
      Вы не можете редактировать свои сообщения
      Вы не можете удалять свои сообщения
      Вы не можете голосовать в опросах
      Вы не можете прикреплять файлы к сообщениям
      Вы можете скачивать файлы