2 сезон

iTunes

1 сезон

1

iTunes

iTunes

iTunes

1 сезон

RePack

30

ИГРА 18+

pack

ВАЖНО

!!Акция!!

Alien_RageХит недели

RePack

MK11
pack

Забери бонус

RePack

jed

!!Акция!!

Alien_Rage

RePack

fifa19

RePack

Assassins Creed: Odyssey

RePack

NEED FOR SPEED™ PAYBACK

4 сезон

9 сезон

Бесстыжие 9 сезон

Все сериалы

все сериалы на PB.wtf

RePack

FAR CRY 5
  

Страховщик / Automata (Габе Ибаньес / Gabe Ibáñez) [2014, фантастика, триллер, BDRip 1080p, Dub, iTunes] pb.wtf

Страховщик через торрент pb.wtf

Размер: 10.62 GB | Добавлен: 5 лет 10 мес. назад | Торрент скачан:526 раз
Скачать  

04-12-2014 20:47 Страховщик Скачать торрент  

Страховщик / Automata
«Ваше время подошло к концу. Наше только начинается»



Год выпуска: 2014
Страна: Испания, Болгария
Жанр: фантастика, триллер
Продолжительность: 01:49:54
Перевод: Дублированный [iTunes]
Субтитры: Нет



Режиссер:
  • Габе Ибаньес / Gabe Ibáñez
В ролях:
  • Антонио Бандерас, Биргитта Йорт Сёренсен, Мелани Гриффит, Дилан МакДермотт, Роберт Форстер, Тим МакИннерни, Энди Найман, Дэвид Райалл, Эндрю Тирнан, Криста Кэмпбелл, Кристина Там, Дэнни Киррейн

Описание: Главным героем фильма - страховой агент компании по изготовлению роботов Жак Вокан, который обнаруживает, что изобретаемые роботы создаются не для эксплуатации, а для истребления.



Качество: BDRip 1080p
Формат: MKV
Видео кодек: AVC
Аудио кодек: AC3
Видео: 1920x816 (2.35:1), 23,976 fps, 12524 kbps, 0,333 bpp
Аудио №1: русский, AC3, 48 kHz, 5.1 ch, 384 kbps
Аудио №2: английский, AC3, 48 kHz, 5.1 ch, 640 kbps


Код:

General
Unique ID                                : 253129645294910010346630697282961960824 (0xBE6EFF120286483296AEA51345286F78)
Complete name                            : E:\Страховщик (2014) BDRip 1080p.mkv
Format                                   : Matroska
Format version                           : Version 4 / Version 2
File size                                : 10.6 GiB
Duration                                 : 1h 49mn
Overall bit rate                         : 13.8 Mbps
Encoded date                             : UTC 2014-12-04 20:35:07
Writing application                      : mkvmerge v6.9.1 ('Blue Panther') 64bit built on Apr 18 2014 18:23:38
Writing library                          : libebml v1.3.0 + libmatroska v1.4.1
Attachment                               : Yes

Video
ID                                       : 1
Format                                   : AVC
Format/Info                              : Advanced Video Codec
Format profile                           : High@L4.1
Format settings, CABAC                   : Yes
Format settings, ReFrames                : 5 frames
Codec ID                                 : V_MPEG4/ISO/AVC
Duration                                 : 1h 49mn
Bit rate                                 : 12.5 Mbps
Width                                    : 1 920 pixels
Height                                   : 816 pixels
Display aspect ratio                     : 2.35:1
Frame rate                               : 23.976 fps
Color space                              : YUV
Chroma subsampling                       : 4:2:0
Bit depth                                : 8 bits
Scan type                                : Progressive
Bits/(Pixel*Frame)                       : 0.333
Stream size                              : 9.61 GiB (91%)
Title                                    : HDAccess
Writing library                          : x264 core 142 r2479kMod dd79a61
Encoding settings                        : cabac=1 / ref=5 / deblock=1:-3:-3 / analyse=0x3:0x133 / me=umh / subme=10 / psy=1 / fade_compensate=0.00 / psy_rd=1.10:0.00 / mixed_ref=1 / me_range=24 / chroma_me=1 / trellis=2 / 8x8dct=1 / cqm=0 / deadzone=21,11 / fast_pskip=1 / chroma_qp_offset=-2 / threads=12 / lookahead_threads=2 / sliced_threads=0 / nr=0 / decimate=1 / interlaced=0 / bluray_compat=0 / constrained_intra=0 / fgo=0 / bframes=9 / b_pyramid=2 / b_adapt=2 / b_bias=0 / direct=3 / weightb=1 / open_gop=0 / weightp=2 / keyint=230 / keyint_min=23 / scenecut=40 / intra_refresh=0 / rc_lookahead=40 / rc=crf / mbtree=0 / crf=18.0000 / qcomp=0.65 / qpmin=0 / qpmax=69 / qpstep=4 / vbv_maxrate=50000 / vbv_bufsize=62500 / crf_max=0.0 / nal_hrd=none / filler=0 / ip_ratio=1.30 / pb_ratio=1.20 / aq=2:0.75
Language                                 : English
Default                                  : Yes
Forced                                   : No
Matrix coefficients                      : BT.709-5, BT.1361, IEC 61966-2-4 709, SMPTE RP177

Audio #1
ID                                       : 2
Format                                   : AC-3
Format/Info                              : Audio Coding 3
Mode extension                           : CM (complete main)
Codec ID                                 : A_AC3
Duration                                 : 1h 49mn
Bit rate mode                            : Constant
Bit rate                                 : 384 Kbps
Channel(s)                               : 6 channels
Channel positions                        : Front: L C R, Side: L R, LFE
Sampling rate                            : 48.0 KHz
Bit depth                                : 16 bits
Compression mode                         : Lossy
Stream size                              : 302 MiB (3%)
Language                                 : Russian
Default                                  : Yes
Forced                                   : No

Audio #2
ID                                       : 3
Format                                   : AC-3
Format/Info                              : Audio Coding 3
Mode extension                           : CM (complete main)
Codec ID                                 : A_AC3
Duration                                 : 1h 49mn
Bit rate mode                            : Constant
Bit rate                                 : 640 Kbps
Channel(s)                               : 6 channels
Channel positions                        : Front: L C R, Side: L R, LFE
Sampling rate                            : 48.0 KHz
Bit depth                                : 16 bits
Compression mode                         : Lossy
Stream size                              : 503 MiB (5%)
Language                                 : English
Default                                  : No
Forced                                   : No

Menu
00:00:00.000                             : en:00:00:00.000
00:09:40.455                             : en:00:09:40.455
00:18:46.917                             : en:00:18:46.917
00:28:32.836                             : en:00:28:32.836
00:39:07.095                             : en:00:39:07.095
00:47:33.476                             : en:00:47:33.476
00:56:55.954                             : en:00:56:55.954
01:06:05.503                             : en:01:06:05.503
01:17:27.810                             : en:01:17:27.810
01:26:11.958                             : en:01:26:11.958
01:34:06.474                             : en:01:34:06.474
01:44:53.412                             : en:01:44:53.412

pb.wtf



Скачать Страховщик через торрент http://pic.kartinco.top/images/8/pguea.jpg Скачать фильм Страховщик через торрент бесплантно в хорошем качестве Описание: Главным героем фильма - страховой агент компании по изготовлению роботов Жак Вокан, который обнаруживает, что изобретаемые роботы ... 9.2 10 14
Info! Золотая раздача, скачанное не засчитывается.
Торрент: Зарегистрирован [2014-12-04 21:19] · скачан: 526 раз
Статус: √ проверено
Размер: 10.62 GB
Как cкачать? Как скачать Страховщик через торрент | qTorrent

% Раздел Тема Автор DL S | L
Фильмы [HD 720p, 1080p] (Хороший звук DUB, MVO) [ 5.66 GB ] Страховщик / Automata [2014 BDRip 720p] [US-Transfer] DUB potroks Скачать
1 | 0
Фильмы 2014 [DVDrip, WEB-DLRip, HDrip] [ 2.18 GB ] Страховщик / Automata [2014 BDRip Dub ] / US Transfer / Ворон Скачать
2 | 0
Фильмы 2014 [DVDrip, WEB-DLRip, HDrip] [ 3.05 GB ] Страховщик / Automata [2014 BDRip-AVC Dub ] / US Transfer / Ворон Скачать
1 | 0
Фильмы (DVD фильмы) [ 5.02 GB ] Страховщик / Automata [2014 DVD9] R5 voovaz Скачать
1 | 0
Фильмы без перевода [ 965 MB ] Страховщик / Automata / Autómata [2014 WEB-DLRip] [Rus] killermax2013 Скачать
1 | 0


Последний раз редактировалось: Seedtank (2014-12-04 21:19), всего редактировалось 1 раз

28-11-2019 20:33  

Отключить всю рекламу на сайте

04-12-2014 21:42 Страховщик Скачать торрент  

Видеоряд от HDAccess.
Релиз подготовлен специально для piratbit.cc
Вшита обложка.
pb.wtf



05-12-2014 06:59 Страховщик Скачать торрент  

Какие то крайности, то 10 гектар, то и одного нет, может будет середина ..pb.wtf



05-12-2014 10:13 Страховщик Скачать торрент  

w.a.s.p., плохо пользуетесь поиском. Есть и Blu-Ray Remux почти на 17 "гектаров"pb.wtf



05-12-2014 17:30 Страховщик Скачать торрент  

когда "добротный" 3D ждать?pb.wtf



    Дорогой пользователь! Огромная просьба, поблагодарите релизера, оцените раздачу и оставьте свои комментарий, если Вы скачали Страховщик через торрент бесплатно! Внесите свою лепту в развитие PiratBit!
    Комментировать посты могут только пользователи прошедшие не сложную регистрацию
    Показать сообщения:    

    Страховщик через торрент
    Скачать бесплатно Страховщик
    Страховщик скачать торрент
    Страховщик смотреть онлайн
    Cкачать фильм Страховщик бесплатно
    Страховщик скачать торрент в хорошем качестве
    Страховщик смотреть онлайн бесплатно в хорошем качестве


    Вы не можете начинать темы
    Вы не можете отвечать на сообщения
    Вы не можете редактировать свои сообщения
    Вы не можете удалять свои сообщения
    Вы не можете голосовать в опросах
    Вы не можете прикреплять файлы к сообщениям
    Вы можете скачивать файлы