Доктор Стрэндж

Лицензия

Добыча

Дубляж

Уэнсдэй

1 сезон

Тор

Дубляж

В эфире

Дубляж

Там, где раки поют

MVO

Властелин колец

1 сезон

Deluxe

pack

Рекомендуем

30

Пиратка

ВАЖНО

ВАЖНО

Ghostwire

Пиратка

jed

RePack

nioh2

RePack

RDR2

RePack

NEED FOR SPEED™ PAYBACK

RePack

скачать торрент

Кинопоиск HD

Острые козырьки 6 сезон

6 сезон

FAR CRY 6

RePack

скачать торрент

Лицензия

скачать торрент

MVO

1

1 сезон

скачать торрент

1 сезон

скачать торрент

Лицензия

  

Приключения маленьких итальянцев (Серджо Бассо / Sergio Basso) [2014, комедия, семейный, DVD5] R5

Смотреть онлайн | Скачать   

05-12-2014 09:42 Приключения маленьких итальянцев Скачать торрент  


Приключения маленьких итальянцев
Страна: Россия, Италия
Студия: Centro Sperimentale di Cinematografia, Rai Cinema, Зори Фильм
Жанр: комедия, семейный
Год выпуска: 2014
Мировая премьера: 20 января 2014
Российская премьера: 30 октября 2014
Дата выхода DVD: 2 декабря 2014
Продолжительность: 01:34:20
Перевод: Оригинал [Лицензия]
Cубтитры: нет
Оригинальная аудиодорожка: русский
Режиссер: Серджо Бассо / Sergio Basso
В ролях: Андрей Чернышов, Ольга Погодина, Кристиана Капотонди, Александр Ковтунец, Максим Бычков, Анна Потебня, Андреа Питторино, Лаура Гайя Пьячентилле, Ракеле Кремона, Бонни Маппиматтель
Описание: Неразлучные друзья из маленько итальянского альпийского городка занимаются фигурным катанием и хоккеем. Однажды по вине ребят пропадает ценная шайба, которая принадлежала их тренеру, бывшему известному российскому спортсмену. Они должны срочно, пока никто не заметил, вернуть ее! Это обстоятельство явилось причиной срочного отлета в Москву всех тех, кто случайно или специально был посвящен в эту тайну.
В Россию прибыли трое итальянских детей, один индус и двое русских ребят, живущих в Италии. Но в Москве одна из итальянских девочек решила сбежать, что усложнило и так непростые соревнования за шайбу в незнакомой стране…

Бонусы: нет

Качество: DVD5 R5
Формат: DVD-Video
Видео кодек: MPEG2
Аудио кодек: AC3
Видео: PAL 16:9 (720x576(0.531)) MPEG Video, 25,000 кадр/сек, 5506 Кбит/сек
Аудио: Russian (Dolby AC3, 6 ch) 448 Кбит/сек, 48,0 КГц



Title: Prikljuchenija.malenkih.italjancev.2014.DVD5
Size: 4.11 Gb ( 4 310 310,00 KBytes ) - DVD-5
Enabled regions: 1, 2, 3, 4, 5, 6, 7, 8

VTS_01 :
Play Length: 00:00:19
Video: PAL 16:9 (720x576) VBR, Auto Pan&Scan, Auto Letterboxed
Audio:
Not specified (Dolby AC3, 2 ch)

VTS_02 :
Play Length: 01:34:20
Video: PAL 16:9 (720x576) VBR, Auto Pan&Scan, Auto Letterboxed
Audio:
Not specified (Dolby AC3, 6 ch)

* Menus Information *

VIDEO_TS Menu
Video:
PAL 16:9 (720x576) VBR
Auto Pan&Scan, Auto Letterboxed
English Language Unit :
Title Menu

VTS_01 Menu
Video:
PAL 16:9 (720x576) VBR
Auto Pan&Scan, Auto Letterboxed
Audio:
Not specified (Dolby AC3, 6 ch)
English Language Unit :
Root Menu

VTS_02 Menu
Video:
PAL 4:3 (720x576) VBR
English Language Unit :
Root Menu
Общее
Полное имя : F:\Новинки 2014\Prikljuchenija.malenkih.italjancev.2014.DVD5\VIDEO_TS\VTS_02_1.VOB
Формат : MPEG-PS
Размер файла : 1024 Мбайт
Продолжительность : 23 м.
Режим общего битрейта : Переменный
Общий поток : 6075 Кбит/сек

Видео
Идентификатор : 224 (0xE0)
Формат : MPEG Video
Версия формата : Version 2
Профиль формата : [email protected]
Параметр BVOP формата : Да
Параметр матрицы формата : Выборочная
Параметр GOP формата : M=3, N=12
Format_Settings_PictureStructure : Frame
Продолжительность : 23 м.
Вид битрейта : Переменный
Битрейт : 5506 Кбит/сек
Максимальный битрейт : 9000 Кбит/сек
Ширина : 720 пикселей
Высота : 576 пикселей
Соотношение сторон : 16:9
Частота кадров : 25,000 кадров/сек
Стандарт вещания : PAL
Цветовое пространство : YUV
Субдискретизация насыщенности : 4:2:0
Битовая глубина : 8 бит
Тип развёртки : Чересстрочная
Порядок развёртки : Верхнее поле первое
Метод сжатия : С потерями
Бит/(Пиксели*Кадры) : 0.531
Временной код первого кадра : 00:00:00:00
Оригинал временного кода : Group of pictures header
Размер потока : 928 Мбайт (91%)
Основные цвета : BT.601 PAL
Характеристики трансфера : BT.470 System B, BT.470 System G
Коэффициенты матрицы : BT.601

Аудио
Идентификатор : 189 (0xBD)-128 (0x80)
Формат : AC-3
Формат/Информация : Audio Coding 3
Расширение режима : CM (complete main)
Параметр Endianness формата : Big
Режим смешивания : DVD-Video
Продолжительность : 23 м.
Вид битрейта : Постоянный
Битрейт : 448 Кбит/сек
Каналы : 6 каналов
Расположение каналов : Front: L C R, Side: L R, LFE
Частота : 48,0 КГц
Битовая глубина : 16 бит
Метод сжатия : С потерями
Размер потока : 75,5 Мбайт (7%)













Скачать
Чтобы иметь возможность скачивать с Торрент Трекера, нужно Зарегистрироваться

Как скачивать  ·  Рейтинг и ограничения

28-11-2019 20:33  


Отключить вcю реклaмy на сайте, в т.ч. и в плеере онлайн просмотра!

20-05-2015 04:09 Приключения маленьких итальянцев Скачать торрент  

Спасибо, но где сидеры?



    Дорогой пользователь! Огромная просьба, поблагодарите релизера, оцените раздачу и оставьте свои комментарий, если Вы скачали Приключения маленьких итальянцев через торрент бесплатно!!
    Комментировать посты могут только пользователи прошедшие не сложную регистрацию
    Показать сообщения:    


    Приключения маленьких итальянцев через торрент
    Скачать бесплатно Приключения маленьких итальянцев
    Приключения маленьких итальянцев скачать торрент
    Приключения маленьких итальянцев смотреть онлайн
    Cкачать фильм Приключения маленьких итальянцев бесплатно
    Приключения маленьких итальянцев скачать торрент в хорошем качестве
    Приключения маленьких итальянцев смотреть онлайн бесплатно в хорошем качестве
    Вы не можете начинать темы
    Вы не можете отвечать на сообщения
    Вы не можете редактировать свои сообщения
    Вы не можете удалять свои сообщения
    Вы не можете голосовать в опросах
    Вы не можете прикреплять файлы к сообщениям
    Вы не можете скачивать файлы
    Приключения маленьких итальянцев [2014, комедия, семейный, DVD5] R5 смотреть онлайн, скачать торрент picoco.icu