2 сезон

iTunes

1 сезон

1

iTunes

iTunes

iTunes

1 сезон

RePack

30

ИГРА 18+

pack

ВАЖНО

!!Акция!!

Alien_RageХит недели

RePack

MK11
pack

Забери бонус

RePack

jed

!!Акция!!

Alien_Rage

RePack

fifa19

RePack

Assassins Creed: Odyssey

RePack

NEED FOR SPEED™ PAYBACK

4 сезон

9 сезон

Бесстыжие 9 сезон

Все сериалы

все сериалы на PB.wtf

RePack

FAR CRY 5
  

Малышка на миллион / Million Dollar Baby (Клинт Иствуд) [2004, драма, спорт, BDRip 1080p] DUB, AVO pb.wtf

Малышка на миллион через торрент pb.wtf

Размер: 14.36 GB | Добавлен: 5 лет 10 мес. назад | Торрент скачан:53 раза
Скачать  

05-12-2014 13:00 Малышка на миллион Скачать торрент  

Малышка на миллион / Million Dollar Baby

Год выпуска: 2004
Страна: США
Жанр: драма, спорт
Продолжительность: 02:12:32
Перевод: дублированный, авторский
Субтитры: русские, английские (все отдельно)

Режиссёр: Клинт Иствуд

В ролях: Клинт Иствуд, Хилари Суэнк, Морган Фримен, Джей Барушель, Майк Колтер, Люсия Рижкер, Брайан Ф. О’Бирн, Энтони Маки, Марго Мартиндейл, Рики Линдхоум

Описание: Тренер по боксу Фрэнк Данн переживает не лучшие времена. Из-за сложных отношений со своей дочерью он долгое время не позволял себе привязываться к кому-либо, боясь вновь пережить потерю. Однако всё меняется, когда в его тренировочном зале появляется Мэгги. Существуя в постоянной борьбе с окружающим миром, Мэгги выработала в себе непоколебимую стойкость духа и волю к победе. Но больше всего на свете она хочет, чтобы в неё поверили. Фрэнк не хочет брать на себя ответственность, однако упорство Мэгги побеждает. В водовороте жизненных перипетий эти двое осознают, что стремятся к одному и тому же: забыть прошлое и обрести семью. Впереди их ждёт главное сражение жизни, для которого им потребуется собрать в своих сердцах столько мужества, сколько раньше они и представить себе не могли...



Качество: BDRip 1080p Сравнение с исходником
Формат: MKV
Видео кодек: H.264
Аудио кодек: AC3, DTS
Видео: 1920x800, 9097 kbps, 23.976 кадра/с, 0.247 bpp
Аудио 1: русский, DTS, 755 kbps, 6 ch, 48 kHz [дублированный]
Аудио 2: русский, DTS, 1509 kbps, 6 ch, 48 kHz [авторский, Юрий Живов]

Отдельные файлы
Аудио: русский, AC3, 448 kbps, 6 ch, 48 kHz [авторский, Алексей Багичев]
Аудио: русский, AC3, 448 kbps, 6 ch, 48 kHz [авторский, Сергей Визгунов]
Аудио: русский, DTS, 1509 kbps, 6 ch, 48 kHz [авторский, Яков Беллман]
Аудио: английский, DTS, 1509 kbps, 6 ch, 48 kHz [оригинал]

Имеются неименованные главы/чаптеры.

Автор рипа msltel
Специальный приз Национального совета обозревателей Клинту Иствуду как продюсеру, режиссёру, актёру и композитору, 2 «Золотых сателлита» — за главную женскую роль в драме и адаптированный сценарий, «Имидж» за второплановую мужскую роль, «Давид» Донателло» в Италии, приз Японской киноакадемии, «Голубая лента» и премия «Кинема дзюнпо» за лучший иностранный фильм по итогам 2005 года, «Серебряная лента» в Италии лучшему иностранному режиссёру по итогам 2005 года.

Сезар, 2006 год
Победитель (1):
Лучший фильм на иностранном языке

Оскар, 2005 год
Победитель (4):
Лучший фильм
Лучшая женская роль (Хилари Суэнк)
Лучшая мужская роль второго плана (Морган Фриман)
Лучший режиссер (Клинт Иствуд)

Номинации (3):
Лучшая мужская роль (Клинт Иствуд)
Лучший адаптированный сценарий
Лучший монтаж

Золотой глобус, 2005 год
Победитель (2):
Лучшая женская роль (драма) (Хилари Суэнк)
Лучший режиссер (Клинт Иствуд)

Номинации (3):
Лучший фильм (драма)
Лучшая мужская роль второго плана (Морган Фриман)
Лучший саундтрек

Премия канала «MTV», 2005 год
Номинации (1):
Лучшая женская роль (Хилари Суэнк)

Премия Гильдии актеров, 2005 год
Победитель (2):
Лучшая женская роль (Хилари Суэнк)
Лучшая мужская роль второго плана (Морган Фриман)

Номинации (1):
Лучший актерский состав
Общее
Полное имя : D:VideoMalyshka na million.2004.BDRip.1080pMalyshka na million.2004.AVO.rus.А.Багичев.ac3
Формат : AC-3
Формат/Информация : Audio Coding 3
Размер файла : 424 Мбайт
Продолжительность : 2 ч. 12 м.
Режим общего битрейта : Постоянный
Общий поток : 448 Кбит/сек

Аудио
Формат : AC-3
Формат/Информация : Audio Coding 3
Расширение режима : CM (complete main)
Параметр Endianness формата : Big
Продолжительность : 2 ч. 12 м.
Вид битрейта : Постоянный
Битрейт : 448 Кбит/сек
Каналы : 6 каналов
Расположение каналов : Front: L C R, Side: L R, LFE
Частота : 48,0 КГц
Битовая глубина : 16 бит
Метод сжатия : С потерями
Размер потока : 424 Мбайт (100%)

Общее
Полное имя : D:VideoMalyshka na million.2004.BDRip.1080pMalyshka na million.2004.AVO.rus.С.Визгунов.ac3
Формат : AC-3
Формат/Информация : Audio Coding 3
Размер файла : 425 Мбайт
Продолжительность : 2 ч. 12 м.
Режим общего битрейта : Постоянный
Общий поток : 448 Кбит/сек

Аудио
Формат : AC-3
Формат/Информация : Audio Coding 3
Расширение режима : CM (complete main)
Параметр Endianness формата : Big
Продолжительность : 2 ч. 12 м.
Вид битрейта : Постоянный
Битрейт : 448 Кбит/сек
Каналы : 6 каналов
Расположение каналов : Front: L C R, Side: L R, LFE
Частота : 48,0 КГц
Битовая глубина : 16 бит
Метод сжатия : С потерями
Размер потока : 425 Мбайт (100%)

Общее
Полное имя : D:VideoMalyshka na million.2004.BDRip.1080pMalyshka na million.2004.AVO.rus.Я.Беллман.dts
Формат : DTS
Формат/Информация : Digital Theater Systems
Размер файла : 1,40 Гбайт
Продолжительность : 2 ч. 12 м.
Режим общего битрейта : Постоянный
Общий поток : 1509 Кбит/сек

Аудио
Формат : DTS
Формат/Информация : Digital Theater Systems
Режим : 16
Параметр Endianness формата : Big
Продолжительность : 2 ч. 12 м.
Вид битрейта : Постоянный
Битрейт : 1509 Кбит/сек
Каналы : 6 каналов
Расположение каналов : Front: L C R, Side: L R, LFE
Частота : 48,0 КГц
Битовая глубина : 24 бит
Метод сжатия : С потерями
Размер потока : 1,40 Гбайт (100%)

Общее
Уникальный идентификатор : 228244737308920799623678567564716157664 (0xABB656615DFDFF18840CDBCD04BE2AE0)
Полное имя : D:VideoMalyshka na million.2004.BDRip.1080pMalyshka na million.2004.BDRip.1080p.mkv
Формат : Matroska
Версия формата : Version 4 / Version 2
Размер файла : 10,7 Гбайт
Продолжительность : 2 ч. 12 м.
Общий поток : 11,6 Мбит/сек
Дата кодирования : UTC 2014-12-05 08:55:13
Программа кодирования : mkvmerge v7.3.0 ('Nouages') 64bit built on Oct 22 2014 18:53:34
Библиотека кодирования : libebml v1.3.0 + libmatroska v1.4.1
DURATION : 02:12:32.384000000
NUMBER_OF_FRAMES : 745536
NUMBER_OF_BYTES : 1500019148
_STATISTICS_WRITING_APP : mkvmerge v7.3.0 ('Nouages') 64bit built on Oct 22 2014 18:53:34
_STATISTICS_WRITING_DATE_UTC : 2014-12-05 08:55:13
_STATISTICS_TAGS : BPS DURATION NUMBER_OF_FRAMES NUMBER_OF_BYTES

Видео
Идентификатор : 1
Формат : AVC
Формат/Информация : Advanced Video Codec
Профиль формата : High@L4.1
Параметр CABAC формата : Да
Параметр ReFrames формата : 4 кадра
Идентификатор кодека : V_MPEG4/ISO/AVC
Продолжительность : 2 ч. 12 м.
Битрейт : 9097 Кбит/сек
Ширина : 1920 пикселей
Высота : 800 пикселей
Соотношение сторон : 2,40:1
Режим частоты кадров : Постоянный
Частота кадров : 23,976 кадра/сек
Цветовое пространство : YUV
Субдискретизация насыщенности : 4:2:0
Битовая глубина : 8 бит
Тип развёртки : Прогрессивная
Бит/(Пиксели*Кадры) : 0.247
Размер потока : 8,42 Гбайт (78%)
Заголовок : BDRip -- STarankov
Библиотека кодирования : x264 core 142 r2431 ac76440
Настройки программы : cabac=1 / ref=4 / deblock=1:-1:-1 / analyse=0x3:0x113 / me=umh / subme=10 / psy=1 / psy_rd=1.00:0.15 / mixed_ref=1 / me_range=32 / chroma_me=1 / trellis=2 / 8x8dct=1 / cqm=0 / deadzone=21,11 / fast_pskip=1 / chroma_qp_offset=-3 / threads=6 / lookahead_threads=1 / sliced_threads=0 / nr=0 / decimate=1 / interlaced=0 / bluray_compat=0 / constrained_intra=0 / bframes=8 / b_pyramid=2 / b_adapt=2 / b_bias=0 / direct=3 / weightb=1 / open_gop=0 / weightp=2 / keyint=230 / keyint_min=23 / scenecut=40 / intra_refresh=0 / rc_lookahead=40 / rc=crf / mbtree=0 / crf=18.1 / qcomp=0.60 / qpmin=0 / qpmax=69 / qpstep=4 / vbv_maxrate=50000 / vbv_bufsize=62500 / crf_max=0.0 / nal_hrd=none / filler=0 / ip_ratio=1.40 / pb_ratio=1.30 / aq=1:1.00
Язык : English
Default : Да
Forced : Нет
DURATION : 02:12:32.361000000
NUMBER_OF_FRAMES : 190666
NUMBER_OF_BYTES : 9272288013
_STATISTICS_WRITING_APP : mkvmerge v7.3.0 ('Nouages') 64bit built on Oct 22 2014 18:53:34
_STATISTICS_WRITING_DATE_UTC : 2014-12-05 08:55:13
_STATISTICS_TAGS : BPS DURATION NUMBER_OF_FRAMES NUMBER_OF_BYTES

Аудио #1
Идентификатор : 2
Формат : DTS
Формат/Информация : Digital Theater Systems
Режим : 16
Параметр Endianness формата : Big
Идентификатор кодека : A_DTS
Продолжительность : 2 ч. 12 м.
Вид битрейта : Постоянный
Битрейт : 755 Кбит/сек
Каналы : 6 каналов
Расположение каналов : Front: L C R, Side: L R, LFE
Частота : 48,0 КГц
Битовая глубина : 24 бит
Метод сжатия : С потерями
Размер потока : 716 Мбайт (7%)
Заголовок : DUB (R5)
Язык : Russian
Default : Да
Forced : Нет

Аудио #2
Идентификатор : 3
Формат : DTS
Формат/Информация : Digital Theater Systems
Режим : 16
Параметр Endianness формата : Big
Идентификатор кодека : A_DTS
Продолжительность : 2 ч. 12 м.
Вид битрейта : Постоянный
Битрейт : 1509 Кбит/сек
Каналы : 6 каналов
Расположение каналов : Front: L C R, Side: L R, LFE
Частота : 48,0 КГц
Битовая глубина : 24 бит
Метод сжатия : С потерями
Размер потока : 1,40 Гбайт (13%)
Заголовок : AVO (Юрий Живов)
Язык : Russian
Default : Нет
Forced : Нет

Меню
00:00:00.000 : :Chapter 01
00:06:38.398 : :Chapter 02
00:14:11.433 : :Chapter 03
00:17:39.057 : :Chapter 04
00:23:02.547 : :Chapter 05
00:28:04.139 : :Chapter 06
00:31:49.991 : :Chapter 07
00:35:03.893 : :Chapter 08
00:42:16.617 : :Chapter 09
00:48:40.208 : :Chapter 10
00:55:55.477 : :Chapter 11
00:59:14.467 : :Chapter 12
01:06:18.724 : :Chapter 13
01:10:59.213 : :Chapter 14
01:12:41.314 : :Chapter 15
01:19:02.279 : :Chapter 16
01:21:17.914 : :Chapter 17
01:24:51.086 : :Chapter 18
01:33:03.786 : :Chapter 19
01:39:32.424 : :Chapter 20
01:43:23.906 : :Chapter 21
01:48:13.695 : :Chapter 22
01:54:03.753 : :Chapter 23
01:58:35.983 : :Chapter 24
02:05:48.082 : :Chapter 25
02:08:07.846 : :Chapter 26
02:12:29.024 : :Chapter 27

Общее
Полное имя : D:VideoMalyshka na million.2004.BDRip.1080pMalyshka na million.2004.eng.srt
Размер файла : 226 Кбайт

Общее
Полное имя : D:VideoMalyshka na million.2004.BDRip.1080pMalyshka na million.2004.Original.eng.dts
Формат : DTS
Формат/Информация : Digital Theater Systems
Профиль формата : ES
Размер файла : 1,40 Гбайт
Продолжительность : 2 ч. 12 м.
Режим общего битрейта : Постоянный
Общий поток : 1509 Кбит/сек

Аудио
Формат : DTS
Формат/Информация : Digital Theater Systems
Профиль формата : ES
Режим : 16
Параметр Endianness формата : Big
Продолжительность : 2 ч. 12 м.
Вид битрейта : Постоянный
Битрейт : 1509 Кбит/сек
Каналы : 6 каналов
Расположение каналов : Front: L C R, Side: L R, LFE
Частота : 48,0 КГц
Битовая глубина : 24 бит
Метод сжатия : С потерями
Размер потока : 1,40 Гбайт (100%)

Общее
Полное имя : D:VideoMalyshka na million.2004.BDRip.1080pMalyshka na million.2004.rus.srt
Размер файла : 231 Кбайт
pb.wtf



Скачать Малышка на миллион через торрент http://i67.fastpic.ru/big/2014/1203/c6/62a122978c8a2c8bb416f529334c28c6.png Скачать фильм Малышка на миллион через торрент бесплантно в хорошем качестве Описание: Тренер по боксу Фрэнк Данн переживает не лучшие времена. Из-за сложных отношений со своей дочерью он долгое время не позволял ... 10 10 10
Info! Золотая раздача, скачанное не засчитывается.
Торрент: Зарегистрирован [2014-12-06 14:36] · скачан: 53 раз
Статус: √ проверено
Размер: 14.36 GB
Как cкачать? Как скачать Малышка на миллион через торрент | qTorrent

% Раздел Тема Автор DL S | L
Фильмы [HD 720p, 1080p] (Хороший звук DUB, MVO) [ 6.38 GB ] Малышка на миллион / Million Dollar Baby [2004 BDRip 720p] DUB AVO msltel Скачать
1 | 0

28-11-2019 20:33  

Отключить всю рекламу на сайте

06-12-2014 14:36 Малышка на миллион Скачать торрент  

Торрент-файл обновлён. Причина - устранение рассинхрона на двух внешних дорожках и дубляже.
Просьба к разбирающим - перезагрузить торрент.pb.wtf



    Дорогой пользователь! Огромная просьба, поблагодарите релизера, оцените раздачу и оставьте свои комментарий, если Вы скачали Малышка на миллион через торрент бесплатно! Внесите свою лепту в развитие PiratBit!
    Комментировать посты могут только пользователи прошедшие не сложную регистрацию
    Показать сообщения:    

    Малышка на миллион через торрент
    Скачать бесплатно Малышка на миллион
    Малышка на миллион скачать торрент
    Малышка на миллион смотреть онлайн
    Cкачать фильм Малышка на миллион бесплатно
    Малышка на миллион скачать торрент в хорошем качестве
    Малышка на миллион смотреть онлайн бесплатно в хорошем качестве


    Вы не можете начинать темы
    Вы не можете отвечать на сообщения
    Вы не можете редактировать свои сообщения
    Вы не можете удалять свои сообщения
    Вы не можете голосовать в опросах
    Вы не можете прикреплять файлы к сообщениям
    Вы можете скачивать файлы