Ссылка на приватное зеркало нашего сайта всего за 1$. Внимание количество ограничено!!!

2 сезон

iTunes

1 сезон

1

2 сезон

2 сезон

iTunes

1 сезон

RePack

30

Ultimate

ВАЖНО

ИГРА 18+

pack

RePack

MK11
pack

Забери бонус

RePack

jed

!!Акция!!

Alien_Rage

RePack

fifa19

RePack

Assassins Creed: Odyssey

RePack

NEED FOR SPEED™ PAYBACK

4 сезон

9 сезон

Бесстыжие 9 сезон

Все сериалы

все сериалы на PB.wtf

RePack

FAR CRY 5
  

Терминатор: Генезис (Алан Тейлор) (трейлер) [2015 г., фантастика, боевик, триллер, приключения, HDTVRip 1080p, Дубляж] pb.wtf

Терминатор: Генезис через торрент pb.wtf

Размер: 116 MB | Добавлен: 5 лет 11 мес. назад | Торрент скачан:387 раз
Скачать  

05-12-2014 14:15 Терминатор: Генезис Скачать торрент  

Терминатор: Генезис / Terminator: Genisys
Год выпуска: 2015
Страна: США
Жанр: фантастика, боевик, триллер, приключения
Продолжительность: 2 м. 24 с.
Перевод: Дубляж

Режиссер: Алан Тейлор
Продюссер: Дэвид Эллисон, Дэна Голдберг, Билл Карраро
Сценарий: Лаэта Калогридис, Патрик Люссье, Джеймс Кэмерон

Бюджет: $170 000 000
Премьера в мире: 25 июня 2015

IMDB


В ролях: Эмилия Кларк, Арнольд Шварценеггер, Джай Кортни, Джейсон Кларк, Мэтт Смит, Аарон В. Уильямсон, Дж.К. Симмонс, Дуглас Смит, Ли Бён Хон, Сандрин Холт

Описание: Год 2029. Джон Коннор, лидер сопротивления, продолжает войну против машин. Во время обороны Лос-Анджелеса, страхи Джона перед неизвестным будущим усиливаются, когда шпионы ТЕХКОМА раскрывают новый план Скайнет, из которого становится ясно, что компьютер собирается атаковать сразу на двух фронтах: в прошлом и будущем. Это навсегда изменит ход войны.

Качество: HDTVRip 1080p
Формат: MP4
Видео кодек: AVC
Аудио кодек: AAC
Видео: 1920x800, 25.000 fps, 0.173 bit/pixel
Аудио: 44.1 KHz, 2 ch, 127 Kbps

Формат : MPEG-4
Профиль формата : Base Media
Идентификатор кодека : isom
Размер файла : 116 Мбайт
Продолжительность : 2 м. 24 с.
Режим общего битрейта : Переменный
Общий поток : 6756 Кбит/сек
Дата кодирования : UTC 2014-12-05 11:23:07
Дата пометки : UTC 2014-12-05 11:23:07
Программа кодирования : Lavf51.12.1

Видео
Идентификатор : 1
Формат : AVC
Формат/Информация : Advanced Video Codec
Профиль формата : High@L4.0
Параметр CABAC формата : Нет
Параметр ReFrames формата : 5 кадров
Параметр GOP формата : M=1, N=12
Идентификатор кодека : avc1
Идентификатор кодека/Информация : Advanced Video Coding
Продолжительность : 2 м. 24 с.
Битрейт : 6624 Кбит/сек
Ширина : 1920 пикселей
Высота : 800 пикселей
Соотношение сторон : 2,40:1
Режим частоты кадров : Постоянный
Частота кадров : 25,000 кадров/сек
Цветовое пространство : YUV
Субдискретизация насыщенности : 4:2:0
Битовая глубина : 8 бит
Тип развёртки : Прогрессивная
Бит/(Пиксели*Кадры) : 0.173
Размер потока : 114 Мбайт (98%)
Дата кодирования : UTC 2014-12-05 11:23:07
Дата пометки : UTC 2014-12-05 11:23:07

Аудио
Идентификатор : 2
Формат : AAC
Формат/Информация : Advanced Audio Codec
Профиль формата : LC
Идентификатор кодека : 40
Продолжительность : 2 м. 24 с.
Вид битрейта : Переменный
Битрейт : 127 Кбит/сек
Каналы : 2 канала
Расположение каналов : Front: L R
Частота : 44,1 КГц
Метод сжатия : С потерями
Размер потока : 2,20 Мбайт (2%)
Дата кодирования : UTC 2014-12-05 11:23:07
Дата пометки : UTC 2014-12-05 11:23:07


Терминатор: Генезис скачать торрент


pb.wtf



Скачать Терминатор: Генезис через торрент http://i66.fastpic.ru/big/2014/1205/2d/513096a4dbeffdad3c776a0907c9682d.png Скачать фильм Терминатор: Генезис через торрент бесплантно в хорошем качестве Описание: Год 2029. Джон Коннор, лидер сопротивления, продолжает войну против машин. Во время обороны Лос-Анджелеса, страхи Джона перед ... 9.5 10 33
Info! Золотая раздача, скачанное не засчитывается.
Торрент: Зарегистрирован [2014-12-05 14:15] · скачан: 387 раз
Статус: √ проверено
Размер: 116 MB
Как cкачать? Как скачать Терминатор: Генезис через торрент | qTorrent

% Раздел Тема Автор DL S | L
T Фильмы (мультфильмы) cо спонсором показа (Новинки AVI/MKV) [ 1.37 GB ] Сестры-терминаторы: Генезис / Terminator sisters: Genesis / Shuang Zi Qi Yuan [2017 WEB-DLRip] MVO [КОЛОБОК] bober100 Скачать
1 | 0
Фильмы с авторской озвучкой [ 1.46 GB ] Терминатор: Генезис / Terminator Genisys [2015 BDRip] [AVO] killermax2013 Скачать
1 | 0
T Фильмы (мультфильмы) cо спонсором показа (Новинки AVI/MKV) [ 2.97 GB ] Сестры-терминаторы: Генезис / Terminator sisters: Genesis / Shuang Zi Qi Yuan [2017 WEB-DL 720p] MVO [КОЛОБОК] bober100 Скачать
1 | 0
Ultra HD (UHD: 2K, 4K, 8K) — видео сверхвысокой чёткости [ 75.58 GB ] Терминатор: Генезис / Terminator Genisys [2015 UHD BDRemux 2160p] DUB + MVO + 4xAVO sheker187 Скачать
2 | 0
Фильмы [HD 720p, 1080p] (Хороший звук DUB, MVO) [ 5.64 GB ] Терминатор: Генезис / Terminator Genisys [2015 BDRip 1080p HEVC ()] Мичман37 Скачать
1 | 0
Ultra HD (UHD: 2K, 4K, 8K) — видео сверхвысокой чёткости [ 55.11 GB ] Терминатор: Генезис / Terminator Genisys [2015 UHD BDRemux 2160p] DUB + AVO sheker187 Скачать
1 | 0
3D Видео (48-60 fps) [ 16.14 GB ] Терминатор: Генезис / Terminator Genisys [2015 BDRip 1080p / 60 fps / 3D-Video / HSBS / Dub ] от R.G. HD-Films Ressident Скачать
1 | 0


Последний раз редактировалось: Ppavel13 (2014-12-05 16:55), всего редактировалось 2 раз(а)

28-11-2019 20:33  

Отключить всю рекламу на сайте

05-12-2014 16:08 Терминатор: Генезис Скачать торрент  

бюджет: 25 июня-наверно самый большой какой видел))pb.wtf



05-12-2014 16:28 Терминатор: Генезис Скачать торрент  

170 000 000pb.wtf



05-12-2014 16:55 Терминатор: Генезис Скачать торрент  

Поправил. В будущем исправлюсь ))pb.wtf



05-12-2014 17:30 Терминатор: Генезис Скачать торрент  

это на перезапуск фильма похоже.pb.wtf



05-12-2014 17:39 Терминатор: Генезис Скачать торрент  

ремейки попёрли! pb.wtf



    Дорогой пользователь! Огромная просьба, поблагодарите релизера, оцените раздачу и оставьте свои комментарий, если Вы скачали Терминатор: Генезис через торрент бесплатно! Внесите свою лепту в развитие PiratBit!
    Комментировать посты могут только пользователи прошедшие не сложную регистрацию
    Показать сообщения:    

    Терминатор: Генезис через торрент
    Скачать бесплатно Терминатор: Генезис
    Терминатор: Генезис скачать торрент
    Терминатор: Генезис смотреть онлайн
    Cкачать фильм Терминатор: Генезис бесплатно
    Терминатор: Генезис скачать торрент в хорошем качестве
    Терминатор: Генезис смотреть онлайн бесплатно в хорошем качестве


    Вы не можете начинать темы
    Вы не можете отвечать на сообщения
    Вы не можете редактировать свои сообщения
    Вы не можете удалять свои сообщения
    Вы не можете голосовать в опросах
    Вы не можете прикреплять файлы к сообщениям
    Вы можете скачивать файлы