2 сезон

iTunes

MVO

1

2 сезон

iTunes

iTunes

1 сезон

RePack

30

Ultimate

ВАЖНО

ИГРА 18+

pack

RePack

MK11
pack

Легкие деньги

RePack

jed

RePack

fifa19

RePack

RDR2

RePack

NEED FOR SPEED™ PAYBACK

4 сезон

9 сезон

Бесстыжие 9 сезон

Все сериалы

все сериалы на PB.wtf

RePack

FAR CRY 5

Anonymous, добрый вечер, мы не успеваем собрать деньги на оплату серверов за декабрь и январь, помогите нам пожалуйста в это трудное время. В качестве благодарности мы отключим Вам всю рекламу на сайте (укажите свой ник в строку Ваше имя)!

×
  
Magnet ссылка

Волк с Уолл-стрит / The Wolf of Wall Street (Мартин Скорсезе) [2013 г., драма, комедия, криминал, биография, BDRip, Дубляж, Лицензия] pb.wtf

Волк с Уолл-стрит через торрент pb.wtf

Раздают: 5 [ 0 KB/s ]
Размер: 2.14 GB | Добавлен: 6 лет 1 мес. назад | Торрент скачан:2356 раз
Скачать  

05-12-2014 19:16 Волк с Уолл-стрит Скачать торрент  

Волк с Уолл-стрит / The Wolf of Wall Street
Год выпуска: 2013
Страна: США / Paramount Pictures, Red Granite Pictures, Appian Way
Жанр: драма, комедия, криминал, биография
Продолжительность: 02:52:07
Перевод: Дубляж (Лицензия)

Режиссер: Мартин Скорсезе

В ролях: Леонардо ДиКаприо, Джона Хилл, Марго Робби, Мэттью МакКонахи, Кайл Чандлер, Роб Райнер, П.Дж. Бирн, Джон Бернтал, Кристин Милиоти, Жан Дюжарден

Описание: 1987 год. Джордан Белфорт становится брокером в успешном инвестиционном банке. Вскоре банк закрывается после внезапного обвала индекса Доу-Джонса. По совету жены Терезы Джордан устраивается в небольшое заведение, занимающееся мелкими акциями. Его настойчивый стиль общения с клиентами и врождённая харизма быстро даёт свои плоды. Он знакомится с соседом по дому Донни, торговцем, который сразу находит общий язык с Джорданом и решает открыть с ним собственную фирму. В качестве сотрудников они нанимают нескольких друзей Белфорта, его отца Макса и называют компанию «Стрэттон Оукмонт». В свободное от работы время Джордан прожигает жизнь: лавирует от одной вечеринки к другой, вступает в сексуальные отношения с проститутками, употребляет множество наркотических препаратов, в том числе кокаин и кваалюд. Однажды наступает момент, когда быстрым обогащением Белфорта начинает интересоваться агент ФБР…

Качество: BDRip (Рип с Blu-ray RUS 1080i AVC DTS-HD 7.1)
Формат: AVI
Видео кодек: XviD
Аудио кодек: AC3
Видео: MPEG4, XviD, 720x400 (16:9), 25.000 fps, 1 321 Kbps (0.184 bit/pixel)
Аудио: AC-3, 48.0 KHz, 6 ch, 448 Kbps, CBR

скриншот   скриншот   скриншот   скриншот   скриншот   скриншот   скриншот   скриншот   скриншот   скриншот  

Общее
Полное имя : G:\кино\Волк с Уолл-стрит.2013.BDRip.avi
Формат : AVI
Формат/Информация : Audio Video Interleave
Профиль формата : OpenDML
Размер файла : 2,14 Гбайт
Продолжительность : 2 ч. 52 м.
Общий поток : 1782 Кбит/сек
Программа кодирования : VirtualDubMod 1.5.10.3 | www.virtualdub-fr.org || (build 2550/release)
Библиотека кодирования : VirtualDubMod build 2550/release

Видео
Идентификатор : 0
Формат : MPEG-4 Visual
Профиль формата : Advanced Simple@L5
Параметр BVOP формата : 2
Параметр QPel формата : Нет
Параметр GMC формата : Без точки перехода
Параметр матрицы формата : Default (H.263)
Идентификатор кодека : XVID
Идентификатор кодека/Подсказка : XviD
Продолжительность : 2 ч. 52 м.
Битрейт : 1321 Кбит/сек
Ширина : 720 пикселей
Высота : 400 пикселей
Соотношение сторон : 16:9
Частота кадров : 25,000 кадров/сек
Цветовое пространство : YUV
Субдискретизация насыщенности : 4:2:0
Битовая глубина : 8 бит
Тип развёртки : Прогрессивная
Метод сжатия : С потерями
Бит/(Пиксели*Кадры) : 0.184
Размер потока : 1,59 Гбайт (74%)
Библиотека кодирования : XviD 1.2.1 (UTC 2008-12-04)

Аудио
Идентификатор : 1
Формат : AC-3
Формат/Информация : Audio Coding 3
Расширение режима : CM (complete main)
Параметр Endianness формата : Big
Идентификатор кодека : 2000
Продолжительность : 2 ч. 52 м.
Вид битрейта : Постоянный
Битрейт : 448 Кбит/сек
Каналы : 6 каналов
Расположение каналов : Front: L C R, Side: L R, LFE
Частота : 48,0 КГц
Битовая глубина : 16 бит
Метод сжатия : С потерями
Размер потока : 552 Мбайт (25%)
Выравнивание : Разделение по промежуткам
Продолжительность промежутка : 40 мс. (1,00 видеокадр)
Время предзагрузки промежутка : 500 мс.

pb.wtf



Скачать Волк с Уолл-стрит через торрент http://pic.kartinco.top/images/8/cp6w9.jpg Скачать фильм Волк с Уолл-стрит через торрент бесплантно в хорошем качестве Описание: 1987 год. Джордан Белфорт становится брокером в успешном инвестиционном банке. Вскоре банк закрывается после внезапного обвала ... 9.9 10 45
Info! Золотая раздача, скачанное не засчитывается.
Торрент: Зарегистрирован [2014-12-05 19:16] · скачан: 2 356 раз
Статус: √ проверено
Размер: 2.14 GB
Как cкачать? Как скачать Волк с Уолл-стрит через торрент | UTorrent

% Раздел Тема Автор DL S | L
Фильмы (Blu-ray, BD-Remux, HDDVD) [ 57.05 GB ] Волк с Уолл-стрит / The Wolf of Wall Street [2013 BDRemux 1080p] DUB + 3xAVO sheker187 Скачать
1 | 0
Фильмы (BDRip, HDrip-AVC) (48-60 fps) [ 3.95 GB ] Волк с Уолл-стрит / The Wolf of Wall Street [2013 BDRip-AVC 60fps Dub] от R.G. HD-Films Tiberiumsun69 Скачать
63 | 0
Фильмы [HD 720p, 1080p] (Хороший звук DUB, MVO) [ 21.67 GB ] Волк с Уолл-стрит / The Wolf of Wall Street [2013 BDRip 1080p] + 2xAVO [Ю.Немахов С.Визгунов] от R.G. PiratFilms Messa-fan Скачать
1 | 0
Фильмы [HD 720p, 1080p] (Хороший звук DUB, MVO) [ 19.86 GB ] Волк с Уолл-стрит / The Wolf of Wall Street [2013 BDRip 1080p ] от R.G. HD-Films Seedtank Скачать
4 | 0
Фильмы с авторской озвучкой [ 1.45 GB ] Волк с Уолл-Стрит / The Wolf of Wall Street [2013 Биография HDRip] [AVO] killermax2013 Скачать
1 | 0
Фильмы [HD 720p, 1080p] (Хороший звук DUB, MVO) [ 12.22 GB ] Волк с Уолл-стрит / The Wolf of Wall Street [2013 BDRip 720p] + 2xAVO [Ю.Немахов С.Визгунов] от R.G. PiratFilms Messa-fan Скачать
1 | 0
Фильмы (Blu-ray, BD-Remux, HDDVD) [ 33.57 GB ] Волк с Уолл-стрит / The Wolf of Wall Street [2013 BD-Remux ] от R.G. HD-Films Seedtank Скачать
1 | 0

28-11-2019 20:33  

Отключить всю рекламу на сайте

25-02-2015 17:53 Волк с Уолл-стрит Скачать торрент  

фильм просто,класс!!!!3 часа на одном дыхании!!!pb.wtf



    Дорогой пользователь! Огромная просьба, поблагодарите релизера, оцените раздачу и оставьте свои комментарий, если Вы скачали Волк с Уолл-стрит через торрент бесплатно! Внесите свою лепту в развитие PiratBit!
    Комментировать посты могут только пользователи прошедшие не сложную регистрацию
    Показать сообщения:    

    Волк с Уолл-стрит через торрент
    Скачать бесплатно Волк с Уолл-стрит
    Волк с Уолл-стрит скачать торрент
    Волк с Уолл-стрит смотреть онлайн
    Cкачать фильм Волк с Уолл-стрит бесплатно
    Волк с Уолл-стрит скачать торрент в хорошем качестве
    Волк с Уолл-стрит смотреть онлайн бесплатно в хорошем качестве


    Вы не можете начинать темы
    Вы не можете отвечать на сообщения
    Вы не можете редактировать свои сообщения
    Вы не можете удалять свои сообщения
    Вы не можете голосовать в опросах
    Вы не можете прикреплять файлы к сообщениям
    Вы можете скачивать файлы