1 сезон

3 сезон

iTunes

1

iTunes

MVO

iTunes

13

1 сезон

RePack

30

Deluxe

pack

Лицензия

ВАЖНО

ИГРА 18+

pack

RePack

MK11

RePack

jed

RePack

fifa19

RePack

RDR2

RePack

NEED FOR SPEED™ PAYBACK

4 сезон

9 сезон

Бесстыжие 9 сезон

Все сериалы

все сериалы на PB.wtf

RePack

FAR CRY 5

Anonymous, доброе утро, мы катастрофически не успеваем собрать деньги на оплату серверов, помогите нам пожалуйста 5,10,15р., для нас важна любая помощь . В качестве благодарности мы отключим Вам всю рекламу на сайте (укажите свой ник в строку Ваше имя)!

×
  
Magnet ссылка

Таймлесс 2: Сапфировая книга / Saphirblau (Феликс Фуксштайнер, Катарина Шёде / Felix Fuchssteiner, Katharina Schode) [2014, фантастика, фэнтези, драма, мелодрама, детектив, DVD5] R5 pb.wtf

Таймлесс 2: Сапфировая книга через торрент pb.wtf

Размер: 4.11 GB | Добавлен: 6 лет 7 мес. назад | Торрент скачан:75 раз
Скачать  

05-12-2014 23:56 Таймлесс 2: Сапфировая книга Скачать торрент  


Таймлесс 2: Сапфировая книга / Saphirblau
«Любовь будет вечной, если ты повелитель времени»
Страна: Германия
Студия: ARRI Film & TV Services, Geißendörfer Film- und Fernsehproduktion (GFF), Lieblingsfilm, mem-film, Tele-München (TMG)
Жанр: фантастика, фэнтези, драма, мелодрама, детектив
Год выпуска: 2014
Мировая премьера: 7 августа 2014
Российская премьера: 25 сентября 2014
Дата выхода DVD: 4 декабря 2014
Продолжительность: 01:51:47
Перевод: Профессиональный (многоголосый закадровый) [Лицензия]
Cубтитры: нет
Оригинальная аудиодорожка: нет
Режиссер: Феликс Фуксштайнер, Катарина Шёде / Felix Fuchssteiner, Katharina Schode
В ролях: Мария Эрих, Яннис Нивёнер, Петер Симонишек, Йозефина Пройсс, Флориан Бартоломай, Руфус Бек, Лаура Берлин, Сандра Боргманн, Юстина дель Корте, Вероника Феррес
Описание: Приключения юной Гвендолин Шеферд продолжаются. Она начинает все больше узнавать о тайнах мира путешественников во времени. Ей предстоит разгадать больше загадок и научиться быть светской леди для приемов в 18 веке. Гвендолин узнает больше о своей семье, в первую очередь о ее дедушке Лукасе. Также Гвен подозревает, что Гидеон скрывает что-то от нее, возможно какую-то сокровенную страшную тайну… Но с появлением нового, слегка надоедливого друга Ксемериуса, девушке становится легче преодолевать все препятствия на пути.
Бонусы: нет

Качество: DVD5 R5
Формат: DVD-Video
Видео кодек: MPEG2
Аудио кодек: AC3
Видео: PAL 16:9 (720x576(0.445)) MPEG Video, 25,000 кадр/сек, 4610 Кбит/сек
Аудио: Russian (Dolby AC3, 6 ch) 448 Кбит/сек, 48,0 КГц



Title: Tajmless.2.Sapfirovaja.kniga.2014.DVD5
Size: 4.11 Gb ( 4 312 350,00 KBytes ) - DVD-5
Enabled regions: 1, 2, 3, 4, 5, 6, 7, 8

VTS_01 :
Play Length: 00:00:19
Video: PAL 16:9 (720x576) VBR, Auto Pan&Scan, Auto Letterboxed
Audio:
Not specified (Dolby AC3, 2 ch)

VTS_02 :
Play Length: 01:51:47
Video: PAL 16:9 (720x576) VBR, Auto Pan&Scan, Auto Letterboxed
Audio:
Not specified (Dolby AC3, 6 ch)

* Menus Information *

VIDEO_TS Menu
Video:
PAL 16:9 (720x576) VBR
Auto Pan&Scan, Auto Letterboxed
English Language Unit :
Title Menu

VTS_01 Menu
Video:
PAL 16:9 (720x576) VBR
Auto Pan&Scan, Auto Letterboxed
Audio:
Not specified (Dolby AC3, 6 ch)
English Language Unit :
Root Menu

VTS_02 Menu
Video:
PAL 4:3 (720x576) VBR
English Language Unit :
Root Menu
Общее
Полное имя : F:\Новинки 2014\Tajmless.2.Sapfirovaja.kniga.2014.DVD5\VIDEO_TS\VTS_02_3.VOB
Формат : MPEG-PS
Размер файла : 1024 Мбайт
Продолжительность : 27 м.
Режим общего битрейта : Переменный
Общий поток : 5161 Кбит/сек

Видео
Идентификатор : 224 (0xE0)
Формат : MPEG Video
Версия формата : Version 2
Профиль формата : Main@Main
Параметр BVOP формата : Да
Параметр матрицы формата : Выборочная
Параметр GOP формата : M=3, N=12
Format_Settings_PictureStructure : Frame
Продолжительность : 27 м.
Вид битрейта : Переменный
Битрейт : 4610 Кбит/сек
Максимальный битрейт : 9000 Кбит/сек
Ширина : 720 пикселей
Высота : 576 пикселей
Соотношение сторон : 16:9
Частота кадров : 25,000 кадров/сек
Стандарт вещания : PAL
Цветовое пространство : YUV
Субдискретизация насыщенности : 4:2:0
Битовая глубина : 8 бит
Тип развёртки : Чересстрочная
Порядок развёртки : Верхнее поле первое
Метод сжатия : С потерями
Бит/(Пиксели*Кадры) : 0.445
Временной код первого кадра : 00:55:42:06
Оригинал временного кода : Group of pictures header
Размер потока : 915 Мбайт (89%)
Основные цвета : BT.601 PAL
Характеристики трансфера : BT.470 System B, BT.470 System G
Коэффициенты матрицы : BT.601

Аудио
Идентификатор : 189 (0xBD)-128 (0x80)
Формат : AC-3
Формат/Информация : Audio Coding 3
Расширение режима : CM (complete main)
Параметр Endianness формата : Big
Режим смешивания : DVD-Video
Продолжительность : 27 м.
Вид битрейта : Постоянный
Битрейт : 448 Кбит/сек
Каналы : 6 каналов
Расположение каналов : Front: L C R, Side: L R, LFE
Частота : 48,0 КГц
Битовая глубина : 16 бит
Метод сжатия : С потерями
Задержка видео : -608 мс.
Размер потока : 88,9 Мбайт (9%)










pb.wtf



Скачать Таймлесс 2: Сапфировая книга через торрент http://i63.fastpic.ru/big/2014/1205/85/1ec12ccbe0dc40bc844998bab7458985.jpg Скачать фильм Таймлесс 2: Сапфировая книга через торрент бесплантно в хорошем качестве Описание: Приключения юной Гвендолин Шеферд продолжаются. Она начинает все больше узнавать о тайнах мира путешественников во времени. Ей ... 10 10 4
Info! Золотая раздача, скачанное не засчитывается.
Торрент: Зарегистрирован [2014-12-05 23:56] · скачан: 75 раз
Статус: √ проверено
Размер: 4.11 GB
Как cкачать? Как скачать Таймлесс 2: Сапфировая книга через торрент | UTorrent

% Раздел Тема Автор DL S | L
Фильмы 2014 [DVDrip, WEB-DLRip, HDrip] [ 2.14 GB ] Таймлесс 2: Сапфировая книга / Saphirblau [2014 HDRip многоголосый " R5"] coc900 Скачать
1 | 0

28-11-2019 20:33  

Отключить всю рекламу на сайте

22-12-2014 20:20 Таймлесс 2: Сапфировая книга Скачать торрент  

Раздачу "Таймлесс 2: Сапфировая книга" в хорошем качестве, здесь стоит ждать?pb.wtf



    Дорогой пользователь! Огромная просьба, поблагодарите релизера, оцените раздачу и оставьте свои комментарий, если Вы скачали Таймлесс 2: Сапфировая книга через торрент бесплатно! Внесите свою лепту в развитие PiratBit!
    Комментировать посты могут только пользователи прошедшие не сложную регистрацию
    Показать сообщения:    

    Таймлесс 2: Сапфировая книга через торрент
    Скачать бесплатно Таймлесс 2: Сапфировая книга
    Таймлесс 2: Сапфировая книга скачать торрент
    Таймлесс 2: Сапфировая книга смотреть онлайн
    Cкачать фильм Таймлесс 2: Сапфировая книга бесплатно
    Таймлесс 2: Сапфировая книга скачать торрент в хорошем качестве
    Таймлесс 2: Сапфировая книга смотреть онлайн бесплатно в хорошем качестве


    Вы не можете начинать темы
    Вы не можете отвечать на сообщения
    Вы не можете редактировать свои сообщения
    Вы не можете удалять свои сообщения
    Вы не можете голосовать в опросах
    Вы не можете прикреплять файлы к сообщениям
    Вы можете скачивать файлы