Всегда рабочее зеркало без VPN и Proxy просто перед .vidak.icu напиши любое слово или цифру, Пример http://qc6e.vidak.icu

Лицензия

MVO

1 сезон

1

1 сезон

iTunes

1 сезон

13

1 сезон

Deluxe

pack

Рекомендуем

Repack

30

ВАЖНО

RePack

MK11

RePack

jed

RePack

fifa19

RePack

RDR2

RePack

NEED FOR SPEED™ PAYBACK

Кинопоиск HD

6 сезон

 Острые козырьки 6 сезон

Все сериалы

все сериалы на PB.wtf

RePack

FAR CRY 5
  
Magnet ссылка

Ты – мне, я – тебе (Александр Серый) [ 1976 , СССР , комедия , DVDRip ] pb.wtf

Ты – мне, я – тебе через торрент pb.wtf

Размер: 1.37 GB | Добавлен: 7 лет 8 мес. назад | Торрент скачан:167 раз
Смотреть онлайн Ты – мне, я – тебе | Скачать    Ребята, помогите собрать деньги на оплату серверов!!!

06-12-2014 05:17 Ты – мне, я – тебе Скачать торрент  


Ты – мне, я – тебе

Год выпуска:
1976
Страна: СССР
Жанр: комедия
Продолжительность: 01:21:45
Перевод: Не требуется

Субтитры: Нет
Режиссер: Александр Серый

В ролях: Леонид Куравлёв (Иван и Сергей Кашкины), Татьяна Пельтцер (тетя Люба), Алла Мещерякова (Вера), Светлана Светличная (Валя), Юрий Медведев (Степан), Валерий Носик (Гриша), Роман Ткачук (Пантюхов), Евгений Шутов (Батурин), Илья Рутберг (Влюбчивый), Валентина Карева (Катя), Николай Горлов (дядя), Ян Янакиев (Сыроежкин)
Описание:
Жизнь братьев-близнецов Кашкиных сложилась по-разному: один живет в столице и вполне преуспел в качестве модного... банщика. Другой же так и остался в родном селе простым инспектором рыбнадзора. Но вот случается беда, и столичному счастливцу приходится заменить брата на его посту...
Рейтинг
kinopoisk.ru: 7.049 (1445)
imdb.com: 6.90 (83)
Качество: DVDRip
Формат: AVI
Видео кодек: XviD
Аудио кодек: AC3
Видео: XviD, 704x336 (2.095), 2191 kbps, 25 fps, 0,371 bpp
Аудио: AC3 / 2.0 / 48 kHz / 192 kbps / 16 bit
© Оформление by ФёдорOFF
General
Complete name : D:\раздачи\Ты - мне, я - тебе 1976 DVDRip.avi
Format : AVI
Format/Info : Audio Video Interleave
File size : 1.37 GiB
Duration : 1h 21mn
Overall bit rate : 2 394 Kbps
Writing application : VirtualDubMod 1.5.10.2 (build 2540/release)
Writing library : VirtualDubMod build 2540/release

Video
ID : 0
Format : MPEG-4 Visual
Format profile : Advanced [email protected]
Format settings, BVOP : 1
Format settings, QPel : No
Format settings, GMC : No warppoints
Format settings, Matrix : Default (MPEG)
Codec ID : XVID
Codec ID/Hint : XviD
Duration : 1h 21mn
Bit rate : 2 192 Kbps
Width : 704 pixels
Height : 336 pixels
Display aspect ratio : 2.095
Frame rate : 25.000 fps
Color space : YUV
Chroma subsampling : 4:2:0
Bit depth : 8 bits
Scan type : Progressive
Compression mode : Lossy
Bits/(Pixel*Frame) : 0.371
Stream size : 1.25 GiB (92%)
Writing library : XviD 1.2.0.dev47 (UTC 2006-11-01)

Audio
ID : 1
Format : AC-3
Format/Info : Audio Coding 3
Mode extension : CM (complete main)
Codec ID : 2000
Duration : 1h 21mn
Bit rate mode : Constant
Bit rate : 192 Kbps
Channel(s) : 2 channels
Channel positions : Front: L R
Sampling rate : 48.0 KHz
Bit depth : 16 bits
Compression mode : Lossy
Stream size : 112 MiB (8%)
Alignment : Split accross interleaves
Interleave, duration : 40 ms (1.00 video frame)
Interleave, preload duration : 500 ms
pb.wtf



Скачать Ты – мне, я – тебе через торрент http://i4.imageban.ru/out/2014/12/06/ed4e19af5beb1a7b8ba476a20a8a6e8c.jpg Скачать, смотреть онлайн Ты – мне, я – тебе бесплантно в хорошем качестве Описание: Жизнь братьев-близнецов Кашкиных сложилась по-разному: один живет в столице и вполне преуспел в качестве модного... банщика. ... 10 10 10
Info! Золотая раздача, скачанное не засчитывается.
Торрент: Зарегистрирован [2014-12-06 05:17] · скачан: 167 раз
Статус: √ проверено
Размер: 1.37 GB
Как cкачать? Как скачать Ты – мне, я – тебе через торрент | UTorrent

% Раздел Тема Автор DL S | L
Гонзо [ 1.48 GB ] Ты Мне я Тебе / Help Me Help You Help Me [2017 All Sex Oral Blowjob Facial Massage WEB-DLRip 544p] Split Scenes sheker187 Скачать
1 | 0

28-11-2019 20:33  

Отключить вcю реклaмy на сайте

    Дорогой пользователь! Огромная просьба, поблагодарите релизера, оцените раздачу и оставьте свои комментарий, если Вы скачали Ты – мне, я – тебе через торрент бесплатно!
    Комментировать посты могут только пользователи прошедшие не сложную регистрацию
    Показать сообщения:    

    Ты – мне, я – тебе через торрент
    Скачать бесплатно Ты – мне, я – тебе
    Ты – мне, я – тебе скачать торрент
    Ты – мне, я – тебе смотреть онлайн
    Cкачать фильм Ты – мне, я – тебе бесплатно
    Ты – мне, я – тебе скачать торрент в хорошем качестве
    Ты – мне, я – тебе смотреть онлайн бесплатно в хорошем качестве


    Вы не можете начинать темы
    Вы не можете отвечать на сообщения
    Вы не можете редактировать свои сообщения
    Вы не можете удалять свои сообщения
    Вы не можете голосовать в опросах
    Вы не можете прикреплять файлы к сообщениям
    Вы можете скачивать файлы