2 сезон

iTunes

MVO

1

2 сезон

iTunes

iTunes

1 сезон

RePack

30

Ultimate

ВАЖНО

ИГРА 18+

pack

RePack

MK11
pack

Легкие деньги

RePack

jed

RePack

fifa19

RePack

RDR2

RePack

NEED FOR SPEED™ PAYBACK

4 сезон

9 сезон

Бесстыжие 9 сезон

Все сериалы

все сериалы на PB.wtf

RePack

FAR CRY 5

Anonymous, доброй ночи, мы не успеваем собрать деньги на оплату серверов за декабрь и январь, помогите нам пожалуйста в это трудное время. В качестве благодарности мы отключим Вам всю рекламу на сайте (укажите свой ник в строку Ваше имя)!

×
  
Magnet ссылка

Технология - клипы (1991-2011) [2014 г., Synthpop, Pop, DVDRip, Оригинал] pb.wtf

Технология - клипы через торрент pb.wtf

Размер: 1.56 GB | Добавлен: 6 лет 1 мес. назад | Торрент скачан:82 раза
Скачать  

06-12-2014 08:13 Технология - клипы Скачать торрент  

Технология - клипыГод выпуска: 2014
Страна: Россия
Жанр: Synthpop, Pop
Продолжительность: ~ 02:00:00
Перевод: Оригинал

В ролях: Владимир Нечитайло, Леонид Величковский , Максим Величковский , Виктор Бурко, Кирилл Михайлов ,Андрей Кохаев, Роман Рябцев
Группа «Технология была основана в 1991 году молодыми людьми Романом Рябцевым, Леонидом Величковским, и Андреем Кохаевым и позже к ним присоединившимся Владимиром Нечитайло. 1991 год еще и ознаменовался выходом пилотного альбома под интригующим названием «Все, что ты хочешь». Самый узнаваемый хит группы «Нажми на кнопку» вышел в 1991 году и на эту композицию был снят бюджетный видеоклип. В 1992 году музыкальный коллектив выступает с концертами в Таллинне, дальше следуют туры по странам СНГ. В это же время выходит второй альбом (собрание ремиксов). Последний совместный альбом группы выходит в 1993 году. Спустя три долгих года музыкальный проект «Технология» оживает уже в новом составе Максим Величковский, Владимир Нечитайло, Виктор Бурко и Владимир Михайлов. И уже этот состав группы выпускает новый альбом под названием «Это война»....
1 Концерт 1992 год
2 Песни ни о чем
3 Сегодня ночью
4 Сигнал
5 Всё, что ты хочешь
6 Концертное выступление

Клипы
1 Нажми На Кнопку
2 Песни ни о чем
3 Странные танцы
4 Холодный след
5 Шутник
6 Странные танцы
7 Дивный новый мир 1
8 Дивный новый мир 2
Качество: DVDRip
Формат: AVI
Видео кодек: XviD
Аудио кодек: AC3
Видео: Xvid 656x448, 25fps, 2213kbps
Аудио: Dolby AC3, 44100Hz, stereo, 191kbps

Скриншоты:
скриншот   скриншот   скриншот   скриншот  скриншот  




General
Complete name : E:\01 02 sicret6\Технология - Видеография (1991-2011)\Клипы\(1991) Странные танцы.avi
Format : AVI
Format/Info : Audio Video Interleave
File size : 84.9 MiB
Duration : 4mn 55s
Overall bit rate : 2 415 Kbps
Writing application : VirtualDubMod 1.5.10.2 (build 2540/release)
Writing library : VirtualDubMod build 2540/release

Video
ID : 0
Format : MPEG-4 Visual
Format profile : Advanced Simple@L5
Format settings, BVOP : 1
Format settings, QPel : No
Format settings, GMC : No warppoints
Format settings, Matrix : Custom
Codec ID : XVID
Codec ID/Hint : XviD
Duration : 4mn 55s
Bit rate : 2 213 Kbps
Width : 656 pixels
Height : 448 pixels
Display aspect ratio : 3:2
Frame rate : 25.000 fps
Color space : YUV
Chroma subsampling : 4:2:0
Bit depth : 8 bits
Scan type : Progressive
Compression mode : Lossy
Bits/(Pixel*Frame) : 0.301
Stream size : 77.8 MiB (92%)
Writing library : XviD 73

Audio
ID : 1
Format : AC-3
Format/Info : Audio Coding 3
Mode extension : CM (complete main)
Format settings, Endianness : Big
Codec ID : 2000
Duration : 4mn 54s
Bit rate mode : Constant
Bit rate : 192 Kbps
Channel(s) : 2 channels
Channel positions : Front: L R
Sampling rate : 44.1 KHz
Bit depth : 16 bits
Compression mode : Lossy
Stream size : 6.75 MiB (8%)
Alignment : Split accross interleaves
Interleave, duration : 40 ms (1.00 video frame)
Interleave, preload duration : 500 ms
pb.wtf



Скачать Технология - клипы через торрент https://pic.kartinco.top/images/8/p6zgt.jpg Скачать фильм Технология - клипы через торрент бесплантно в хорошем качестве Описание:Группа «Технология была основана в 1991 году молодыми людьми Романом Рябцевым, Леонидом Величковским, и Андреем Кохаевым и позже ... 9.7 10 7
Info! Серебряная раздача, засчитывается только 50% скачанного.
Торрент: Зарегистрирован [2014-12-06 08:13] · скачан: 82 раз
Статус: √ проверено
Размер: 1.56 GB
Как cкачать? Как скачать Технология - клипы через торрент | UTorrent

28-11-2019 20:33  

Отключить всю рекламу на сайте

    Дорогой пользователь! Огромная просьба, поблагодарите релизера, оцените раздачу и оставьте свои комментарий, если Вы скачали Технология - клипы через торрент бесплатно! Внесите свою лепту в развитие PiratBit!
    Комментировать посты могут только пользователи прошедшие не сложную регистрацию
    Показать сообщения:    

    Технология - клипы через торрент
    Скачать бесплатно Технология - клипы
    Технология - клипы скачать торрент
    Технология - клипы смотреть онлайн
    Cкачать фильм Технология - клипы бесплатно
    Технология - клипы скачать торрент в хорошем качестве
    Технология - клипы смотреть онлайн бесплатно в хорошем качестве


    Вы не можете начинать темы
    Вы не можете отвечать на сообщения
    Вы не можете редактировать свои сообщения
    Вы не можете удалять свои сообщения
    Вы не можете голосовать в опросах
    Вы не можете прикреплять файлы к сообщениям
    Вы можете скачивать файлы