Ссылка на приватное зеркало нашего сайта всего за 1$. Внимание количество ограничено!!!

2 сезон

iTunes

1 сезон

1

iTunes

iTunes

iTunes

1 сезон

RePack

30

ИГРА 18+

pack

ВАЖНО

!!Акция!!

Alien_RageХит недели

RePack

MK11
pack

Забери бонус

RePack

jed

!!Акция!!

Alien_Rage

RePack

fifa19

RePack

Assassins Creed: Odyssey

RePack

NEED FOR SPEED™ PAYBACK

4 сезон

9 сезон

Бесстыжие 9 сезон

Все сериалы

все сериалы на PB.wtf

RePack

FAR CRY 5
  

Дальше живите сами / This Is Where I Leave You (Шон Леви ) [2014, драма, комедия, BDRip 720p, Профессиональный многоголосый [Лицензия] pb.wtf

Дальше живите сами через торрент pb.wtf

Размер: 4.65 GB | Добавлен: 5 лет 10 мес. назад | Торрент скачан:248 раз
Скачать  

06-12-2014 09:21 Дальше живите сами Скачать торрент  


Дальше живите сами / This Is Where I Leave You
«Welcome Home. Get Uncomfortable»

Год выпуска:2014
Страна: США
Жанр:драма, комедия
Продолжительность:01:43:18
Перевод:Профессиональный многоголосый [Лицензия]
Субтитры: английские (English),
английские (English SDH),
Режиссер:Шон Леви

  • В ролях:

    Джейсон Бейтман (Judd Altman), Тина Фей (Wendy Altman), Адам Драйвер (Phillip Altman), Роуз Бирн (Penny Moore), Кори Столл (Paul Altman), Кэтрин Хан (Annie Altman), Конни Бриттон (Tracy Sullivan), Тимоти Олифант (Horry Callen), Дэкс Шепард (Wade Beaufort), Джейн Фонда (Hillary Altman), Дебра Монк (Linda Callen), Эбигейл Спенсер (Quinn Altman)
  • Описание:
    Еврейская семья, которая не особо привыкла соблюдать традиции своей веры, вынуждена выполнить последнее желание своего отца - им нужно будет провести вместе период траура, целую неделю, и решить свои проблемы.

  • Мировая премьера:7 сентября 2014

    Качество: BDRip 720p
    Формат:MKV
    Видео кодек: AVC
    Аудио кодек:AC3, DTS
    Видео: AVC, 1280x528 (2.40:1), 4545 kbps, 23,976 fps, 0,280 bpp
    Аудио №1: русский / AC3 / 5.1 / 48 kHz / 384 kbps / 16 bit ||
    Аудио №2: английский / DTS / 5.1 / 48 kHz / 1510 kbps / 24 bit
    Навигация по главам: есть


    Код:

    General
    Unique ID                                : 203272252953257073529258771061567557757 (0x98ECCFD7894D2CC5B6BE99C37D26907D)
    Complete name                            : D:\Торенты\Dalshe.zhivite.sami.2014.P.BDRip.720p.mkv
    Format                                   : Matroska
    Format version                           : Version 4 / Version 2
    File size                                : 4.65 GiB
    Duration                                 : 1h 43mn
    Overall bit rate                         : 6 440 Kbps
    Encoded date                             : UTC 2014-12-06 00:57:56
    Writing application                      : mkvmerge v6.1.0 ('Old Devil') built on Mar  4 2013 09:10:42
    Writing library                          : libebml v1.3.0 + libmatroska v1.4.0

    Video
    ID                                       : 1
    Format                                   : AVC
    Format/Info                              : Advanced Video Codec
    Format profile                           : High@L4.1
    Format settings, CABAC                   : Yes
    Format settings, ReFrames                : 5 frames
    Codec ID                                 : V_MPEG4/ISO/AVC
    Duration                                 : 1h 43mn
    Bit rate                                 : 4 545 Kbps
    Width                                    : 1 280 pixels
    Height                                   : 528 pixels
    Display aspect ratio                     : 2.40:1
    Frame rate                               : 23.976 fps
    Color space                              : YUV
    Chroma subsampling                       : 4:2:0
    Bit depth                                : 8 bits
    Scan type                                : Progressive
    Bits/(Pixel*Frame)                       : 0.280
    Stream size                              : 3.19 GiB (69%)
    Writing library                          : x264 core 142 r2491 24e4fed
    Encoding settings                        : cabac=1 / ref=5 / deblock=1:0:0 / analyse=0x3:0x133 / me=umh / subme=7 / psy=1 / psy_rd=1.00:0.00 / mixed_ref=1 / me_range=16 / chroma_me=1 / trellis=1 / 8x8dct=1 / cqm=0 / deadzone=21,11 / fast_pskip=1 / chroma_qp_offset=-2 / threads=8 / lookahead_threads=1 / sliced_threads=0 / nr=0 / decimate=1 / interlaced=0 / bluray_compat=0 / constrained_intra=0 / bframes=3 / b_pyramid=2 / b_adapt=2 / b_bias=0 / direct=3 / weightb=1 / open_gop=0 / weightp=2 / keyint=250 / keyint_min=23 / scenecut=40 / intra_refresh=0 / rc_lookahead=50 / rc=2pass / mbtree=1 / bitrate=4545 / ratetol=1.0 / qcomp=0.60 / qpmin=0 / qpmax=69 / qpstep=4 / cplxblur=20.0 / qblur=0.5 / ip_ratio=1.40 / aq=1:1.00
    Language                                 : English
    Default                                  : Yes
    Forced                                   : No

    Audio #1
    ID                                       : 2
    Format                                   : AC-3
    Format/Info                              : Audio Coding 3
    Mode extension                           : CM (complete main)
    Codec ID                                 : A_AC3
    Duration                                 : 1h 43mn
    Bit rate mode                            : Constant
    Bit rate                                 : 384 Kbps
    Channel(s)                               : 6 channels
    Channel positions                        : Front: L C R, Side: L R, LFE
    Sampling rate                            : 48.0 KHz
    Bit depth                                : 16 bits
    Compression mode                         : Lossy
    Stream size                              : 284 MiB (6%)
    Language                                 : Russian
    Default                                  : Yes
    Forced                                   : No

    Audio #2
    ID                                       : 3
    Format                                   : DTS
    Format/Info                              : Digital Theater Systems
    Codec ID                                 : A_DTS
    Duration                                 : 1h 43mn
    Bit rate mode                            : Constant
    Bit rate                                 : 1 510 Kbps
    Channel(s)                               : 6 channels
    Channel positions                        : Front: L C R, Side: L R, LFE
    Sampling rate                            : 48.0 KHz
    Bit depth                                : 24 bits
    Compression mode                         : Lossy
    Stream size                              : 1.09 GiB (23%)
    Language                                 : English
    Default                                  : No
    Forced                                   : No

    Text #1
    ID                                       : 4
    Format                                   : UTF-8
    Codec ID                                 : S_TEXT/UTF8
    Codec ID/Info                            : UTF-8 Plain Text
    Title                                    : English
    Language                                 : English
    Default                                  : No
    Forced                                   : No

    Text #2
    ID                                       : 5
    Format                                   : UTF-8
    Codec ID                                 : S_TEXT/UTF8
    Codec ID/Info                            : UTF-8 Plain Text
    Title                                    : English SDH
    Language                                 : English
    Default                                  : No
    Forced                                   : No

    Menu
    00:00:00.000                             : en:00:00:00.000
    00:09:09.716                             : en:00:09:09.716
    00:21:54.605                             : en:00:21:54.605
    00:30:50.348                             : en:00:30:50.348
    00:39:28.866                             : en:00:39:28.866
    00:50:38.244                             : en:00:50:38.244
    01:01:14.254                             : en:01:01:14.254
    01:09:18.321                             : en:01:09:18.321
    01:20:55.434                             : en:01:20:55.434
    01:29:12.514                             : en:01:29:12.514
    01:40:07.335                             : en:01:40:07.335

    Скриншоты:

    Срочно! Нужна помощь! Жмите

    © Оформление by Ворон
    pb.wtf



  • Скачать Дальше живите сами через торрент http://pic.kartinco.top/images/6/ordi9.jpg Скачать фильм Дальше живите сами через торрент бесплантно в хорошем качестве Описание:Еврейская семья, которая не особо привыкла соблюдать традиции своей веры, вынуждена выполнить последнее желание своего отца - им ... 9.7 10 12
    Торрент: Зарегистрирован [2014-12-06 09:21] · скачан: 248 раз
    Статус: √ проверено
    Размер: 4.65 GB
    Как cкачать? Как скачать Дальше живите сами через торрент | qTorrent

    % Раздел Тема Автор DL S | L
    Фильмы 2014 [DVDrip, WEB-DLRip, HDrip] [ 1.37 GB ] Дальше живите сами / This Is Where I Leave You [2014 HDRip многоголосый ] кэп Скачать
    1 | 0

    28-11-2019 20:33  

    Отключить всю рекламу на сайте

      Дорогой пользователь! Огромная просьба, поблагодарите релизера, оцените раздачу и оставьте свои комментарий, если Вы скачали Дальше живите сами через торрент бесплатно! Внесите свою лепту в развитие PiratBit!
      Комментировать посты могут только пользователи прошедшие не сложную регистрацию
      Показать сообщения:    

      Дальше живите сами через торрент
      Скачать бесплатно Дальше живите сами
      Дальше живите сами скачать торрент
      Дальше живите сами смотреть онлайн
      Cкачать фильм Дальше живите сами бесплатно
      Дальше живите сами скачать торрент в хорошем качестве
      Дальше живите сами смотреть онлайн бесплатно в хорошем качестве


      Вы не можете начинать темы
      Вы не можете отвечать на сообщения
      Вы не можете редактировать свои сообщения
      Вы не можете удалять свои сообщения
      Вы не можете голосовать в опросах
      Вы не можете прикреплять файлы к сообщениям
      Вы можете скачивать файлы