Ссылка на приватное зеркало нашего сайта всего за 1$. Внимание количество ограничено!!!

2 сезон

iTunes

1 сезон

1

iTunes

iTunes

iTunes

1 сезон

RePack

30

ИГРА 18+

pack

ВАЖНО

!!Акция!!

Alien_RageХит недели

RePack

MK11
pack

Забери бонус

RePack

jed

!!Акция!!

Alien_Rage

RePack

fifa19

RePack

Assassins Creed: Odyssey

RePack

NEED FOR SPEED™ PAYBACK

4 сезон

9 сезон

Бесстыжие 9 сезон

Все сериалы

все сериалы на PB.wtf

RePack

FAR CRY 5
  

Здравствуй, папа / Buongiorno papà (Эдоардо Лео ) [2013, драма, комедия, DVDRip, Любительский (одноголосый) [Pashaup] pb.wtf

Здравствуй, папа через торрент pb.wtf

Размер: 1.37 GB | Добавлен: 5 лет 10 мес. назад | Торрент скачан:37 раз
Скачать  

06-12-2014 12:02 Здравствуй, папа Скачать торрент  


Здравствуй, папа / Buongiorno papà


Год выпуска:2013
Страна: Италия
Жанр:драма, комедия
Продолжительность:01:44:59
Перевод:Любительский (одноголосый) [Pashaup]
Режиссер:Эдоардо Лео

  • В ролях:

    Sveva Alviti (Ragazza mora), Стефано Амброджи (Bidello), Йонис Башир (Giaguaro), Джулия Бертини (Eva), Рауль Бова (Andrea), Антонино Брускетта (Adriano), Federica Cifola (Mary), Джорджо Коланджели (Grande Star), Marco Conidi (Giaguaro), Паола Тициана Кручиани (Adele), Chiara Di Giacomo (Stagista), Барбара Фольчитто (Sposa)
  • Описание:
    Андреа чуть за сорок. Каждую ночь этот ошивающийся в мире кино специалист по продукт-плейсменту проводит с новой подружкой, едва достигшей совершеннолетия. Так было до тех пор, пока в одно прекрасное утро в дверь к профессиональному ловеласу не позвонила 17-летняя школьница Лайла: «Здравствуйте, я ваша дочь».
    С этой минуты свидания на одну ночь, равно как и вся привычная жизнь Андреа, под угрозой: в неё уверенно входит этот неформальный подросток, глядя на которого мамаша Андреа и, соответственно, бабушка девочки, спрашивает «Ты что, занят на фильме про наркоманов?»...

  • Мировая премьера:5 марта 2013

    Качество: DVDRip
    Формат:AVI
    Видео кодек: XviD
    Аудио кодек:AC3
    Видео: XviD, 640x352 (16:9), 1406 kbps, 25 fps, 0,250 bpp
    Аудио: AC3 / 5.1 / 48 kHz / 448 kbps / 16 bit


    Код:

    General
    Complete name                            : D:\Торенты\Buongiorno.Papa.2013.DVDRip.avi
    Format                                   : AVI
    Format/Info                              : Audio Video Interleave
    File size                                : 1.37 GiB
    Duration                                 : 1h 44mn
    Overall bit rate                         : 1 864 Kbps
    Writing application                      : VirtualDubMod 1.5.10.2 (build 2542/release)
    Writing library                          : VirtualDubMod build 2542/release

    Video
    ID                                       : 0
    Format                                   : MPEG-4 Visual
    Format profile                           : Advanced Simple@L5
    Format settings, BVOP                    : 1
    Format settings, QPel                    : No
    Format settings, GMC                     : No warppoints
    Format settings, Matrix                  : Default (MPEG)
    Codec ID                                 : XVID
    Codec ID/Hint                            : XviD
    Duration                                 : 1h 44mn
    Bit rate                                 : 1 406 Kbps
    Width                                    : 640 pixels
    Height                                   : 352 pixels
    Display aspect ratio                     : 16:9
    Frame rate                               : 25.000 fps
    Color space                              : YUV
    Chroma subsampling                       : 4:2:0
    Bit depth                                : 8 bits
    Scan type                                : Progressive
    Compression mode                         : Lossy
    Bits/(Pixel*Frame)                       : 0.250
    Stream size                              : 1.03 GiB (75%)
    Writing library                          : XviD 1.2.1 (UTC 2008-12-04)

    Audio
    ID                                       : 1
    Format                                   : AC-3
    Format/Info                              : Audio Coding 3
    Mode extension                           : CM (complete main)
    Codec ID                                 : 2000
    Duration                                 : 1h 44mn
    Bit rate mode                            : Constant
    Bit rate                                 : 448 Kbps
    Channel(s)                               : 6 channels
    Channel positions                        : Front: L C R, Side: L R, LFE
    Sampling rate                            : 48.0 KHz
    Bit depth                                : 16 bits
    Compression mode                         : Lossy
    Stream size                              : 336 MiB (24%)
    Alignment                                : Split accross interleaves
    Interleave, duration                     : 40 ms (1.00 video frame)
    Interleave, preload duration             : 500 ms

    Скриншоты:

    Срочно! Нужна помощь! Жмите

    © Оформление by Ворон
    pb.wtf



  • Скачать Здравствуй, папа через торрент http://pic.kartinco.top/images/6/ordi9.jpg Скачать фильм Здравствуй, папа через торрент бесплантно в хорошем качестве Описание:Андреа чуть за сорок. Каждую ночь этот ошивающийся в мире кино специалист по продукт-плейсменту проводит с новой подружкой, едва ... 10 10 1
    Торрент: Зарегистрирован [2014-12-06 12:02] · скачан: 37 раз
    Статус: T временная
    Размер: 1.37 GB
    Как cкачать? Как скачать Здравствуй, папа через торрент | qTorrent

    28-11-2019 20:33  

    Отключить всю рекламу на сайте

      Дорогой пользователь! Огромная просьба, поблагодарите релизера, оцените раздачу и оставьте свои комментарий, если Вы скачали Здравствуй, папа через торрент бесплатно! Внесите свою лепту в развитие PiratBit!
      Комментировать посты могут только пользователи прошедшие не сложную регистрацию
      Показать сообщения:    

      Здравствуй, папа через торрент
      Скачать бесплатно Здравствуй, папа
      Здравствуй, папа скачать торрент
      Здравствуй, папа смотреть онлайн
      Cкачать фильм Здравствуй, папа бесплатно
      Здравствуй, папа скачать торрент в хорошем качестве
      Здравствуй, папа смотреть онлайн бесплатно в хорошем качестве


      Вы не можете начинать темы
      Вы не можете отвечать на сообщения
      Вы не можете редактировать свои сообщения
      Вы не можете удалять свои сообщения
      Вы не можете голосовать в опросах
      Вы не можете прикреплять файлы к сообщениям
      Вы можете скачивать файлы