Ссылка на приватное зеркало нашего сайта всего за 1$. Внимание количество ограничено!!!

2 сезон

iTunes

1 сезон

1

iTunes

iTunes

iTunes

1 сезон

RePack

30

ИГРА 18+

pack

ВАЖНО

!!Акция!!

Alien_RageХит недели

RePack

MK11
pack

Забери бонус

RePack

jed

!!Акция!!

Alien_Rage

RePack

fifa19

RePack

Assassins Creed: Odyssey

RePack

NEED FOR SPEED™ PAYBACK

4 сезон

9 сезон

Бесстыжие 9 сезон

Все сериалы

все сериалы на PB.wtf

RePack

FAR CRY 5
  

Язык нежности / Terms Of Endearment (Джеймс Л. Брукс) [1983, драма, комедия, BDRip 1080p] MVO, AVO pb.wtf

Язык нежности через торрент pb.wtf

Размер: 19.12 GB | Добавлен: 5 лет 10 мес. назад | Торрент скачан:9 раз
Скачать  

06-12-2014 12:59 Язык нежности Скачать торрент  

Язык нежности / Terms Of Endearment

Год выпуска: 1983
Страна: США
Жанр: драма, комедия
Продолжительность: 02:11:55
Перевод: профессиональный многоголосый, авторский
Субтитры: английские

Режиссёр: Джеймс Л. Брукс

В ролях: Ширли МакЛейн, Дебра Уингер, Джек Николсон, Дэнни ДеВито, Джефф Дэниелс, Джон Литгоу, Лиза Харт Кэрролл, Бетти Кинг, Трой Бишоп, Меган Моррис, Норман Беннетт, Дженнифер Джоуси, Кейт Чарлсон, Том Уиз, Пол Мензел, Аманда Уоткинс, Бадди Гилберт, Дэвид Уол, Шелли К. Нилсен, Чарльз Билл, Шарисс Бэйкер-Бернар, Джудит А. Дикерсон, Девон О’Брайэн, Дэна Вэнс, Нэнси Метте, Холли Бет Холмберг, Леар Левин, Альберт Брукс, Ланье Вилден, Хелен Стойффер, Барбара Балик, Мишель Уоткинс, Джон С. Конджер, Сандра Ньюкирк, Мэри Кэй Плэйс

Описание: Любая мaть лучше дoчери знает, что той нужно для счастья. Аврорa Гринуэй oчень любит свою дочь Эмму, но не всегдa этo пoказывaет. Послe тoго кaк Аврора овдовела, ей пришлось воспитывать ребёнка самой. Прошли годы, девочка выросла, вышла замуж и выпорхнула из родового гнезда. Теперь, когда Аврора осталась одна, ей и самой впору было бы подумать о своей личной жизни. Тем более, что на неё «положил глаз» видный сосед — бывший астронавт, а ныне «заслуженный алкаш» Гарретт Бридлав...



Качество: BDRip 1080p Сравнение с исходником
Формат: MKV
Видео кодек: H.264
Аудио кодек: AC3, DTS
Видео: 1920х1080, 18.1 Mbps, 23.976 кадра/с, 0.363 bpp
Аудио 1: русский, AC3, 384 kbps, 6 ch, 48 kHz [профессиональный многоголосый, iTunes Russia]
Аудио 2: русский, AC3, 192 kbps, 2 ch, 48 kHz [профессиональный многоголосый, R5]
Аудио 3: русский, AC3, 192 kbps, 2 ch, 48 kHz [авторский, Алексей Михалёв]
Аудио 4: английский, DTS, 1509 kbps, 6 ch, 48 kHz [оригинал]

Имеются неименованные главы/чаптеры.

Автор рипа msltel
4 приза Национального совета обозревателей — за лучший англоязычный фильм (поровну с «Предательством» / Betrayal), режиссуру, главную женскую роль и второплановую мужскую роль (Джек Николсон), «Давид» Донателло» в Италии лучшей иностранной актрисе (Шёрли МакЛейн).

Британская академия, 1985 год
Номинации (1):
Лучшая женская роль (Ширли МакЛейн)

Оскар, 1984 год
Победитель (5):
Лучший фильм
Лучшая женская роль (Ширли МакЛейн)
Лучшая мужская роль второго плана (Джек Николсон)
Лучший режиссер (Джеймс Л. Брукс)
Лучший адаптированный сценарий

Номинации (6):
Лучшая женская роль (Дебра Уингер)
Лучшая мужская роль второго плана (Джон Литгоу)
Лучшие декорации
Лучший звук
Лучший монтаж
Лучший оригинальный саундтрек

Золотой глобус, 1984 год
Победитель (4):
Лучший фильм (драма)
Лучшая женская роль (драма) (Ширли МакЛейн)
Лучшая мужская роль второго плана (Джек Николсон)
Лучший сценарий

Номинации (2):
Лучшая женская роль (драма) (Дебра Уингер)
Лучший режиссер (Джеймс Л. Брукс)
Общее
Уникальный идентификатор : 193605283715438866047303168280239821215 (0x91A70575E0976F59A417509CD578519F)
Полное имя : D:VideoJazyk negnosti.1983.BDRip.1080p.mkv
Формат : Matroska
Версия формата : Version 4 / Version 2
Размер файла : 19,1 Гбайт
Продолжительность : 2 ч. 11 м.
Общий поток : 20,8 Мбит/сек
Дата кодирования : UTC 2014-12-06 08:50:41
Программа кодирования : mkvmerge v7.3.0 ('Nouages') 64bit built on Oct 22 2014 18:53:34
Библиотека кодирования : libebml v1.3.0 + libmatroska v1.4.1
_STATISTICS_WRITING_APP : mkvmerge v7.3.0 ('Nouages') 64bit built on Oct 22 2014 18:53:34
_STATISTICS_WRITING_DATE_UTC : 2014-12-06 08:50:41
_STATISTICS_TAGS : BPS DURATION NUMBER_OF_FRAMES NUMBER_OF_BYTES
DURATION : 02:11:55.414000000
NUMBER_OF_FRAMES : 742070
NUMBER_OF_BYTES : 1493044928

Видео
Идентификатор : 1
Формат : AVC
Формат/Информация : Advanced Video Codec
Профиль формата : High@L4.1
Параметр CABAC формата : Да
Параметр ReFrames формата : 4 кадра
Идентификатор кодека : V_MPEG4/ISO/AVC
Продолжительность : 2 ч. 11 м.
Битрейт : 18,1 Мбит/сек
Ширина : 1920 пикселей
Высота : 1080 пикселей
Соотношение сторон : 16:9
Режим частоты кадров : Постоянный
Частота кадров : 23,976 кадра/сек
Цветовое пространство : YUV
Субдискретизация насыщенности : 4:2:0
Битовая глубина : 8 бит
Тип развёртки : Прогрессивная
Бит/(Пиксели*Кадры) : 0.363
Размер потока : 16,6 Гбайт (87%)
Заголовок : BDRip -- STarankov
Библиотека кодирования : x264 core 142 r2431 ac76440
Настройки программы : cabac=1 / ref=4 / deblock=1:-1:-1 / analyse=0x3:0x113 / me=umh / subme=10 / psy=1 / psy_rd=1.00:0.15 / mixed_ref=1 / me_range=32 / chroma_me=1 / trellis=2 / 8x8dct=1 / cqm=0 / deadzone=21,11 / fast_pskip=1 / chroma_qp_offset=-3 / threads=6 / lookahead_threads=1 / sliced_threads=0 / nr=0 / decimate=1 / interlaced=0 / bluray_compat=0 / constrained_intra=0 / bframes=8 / b_pyramid=2 / b_adapt=2 / b_bias=0 / direct=3 / weightb=1 / open_gop=0 / weightp=2 / keyint=230 / keyint_min=23 / scenecut=40 / intra_refresh=0 / rc_lookahead=40 / rc=crf / mbtree=0 / crf=19.2 / qcomp=0.60 / qpmin=0 / qpmax=69 / qpstep=4 / vbv_maxrate=50000 / vbv_bufsize=62500 / crf_max=0.0 / nal_hrd=none / filler=0 / ip_ratio=1.40 / pb_ratio=1.30 / aq=1:1.00
Язык : English
Default : Да
Forced : Нет
DURATION : 02:11:55.408000000
NUMBER_OF_FRAMES : 189780
NUMBER_OF_BYTES : 18275744400
_STATISTICS_WRITING_APP : mkvmerge v7.3.0 ('Nouages') 64bit built on Oct 22 2014 18:53:34
_STATISTICS_WRITING_DATE_UTC : 2014-12-06 08:50:41
_STATISTICS_TAGS : BPS DURATION NUMBER_OF_FRAMES NUMBER_OF_BYTES

Аудио #1
Идентификатор : 2
Формат : AC-3
Формат/Информация : Audio Coding 3
Расширение режима : CM (complete main)
Параметр Endianness формата : Big
Идентификатор кодека : A_AC3
Продолжительность : 2 ч. 11 м.
Вид битрейта : Постоянный
Битрейт : 384 Кбит/сек
Каналы : 6 каналов
Расположение каналов : Front: L C R, Side: L R, LFE
Частота : 48,0 КГц
Битовая глубина : 16 бит
Метод сжатия : С потерями
Размер потока : 362 Мбайт (2%)
Заголовок : MVO (iTunes Russia)
Язык : Russian
Default : Да
Forced : Нет

Аудио #2
Идентификатор : 3
Формат : AC-3
Формат/Информация : Audio Coding 3
Расширение режима : CM (complete main)
Параметр Endianness формата : Big
Идентификатор кодека : A_AC3
Продолжительность : 2 ч. 11 м.
Вид битрейта : Постоянный
Битрейт : 192 Кбит/сек
Каналы : 2 канала
Расположение каналов : Front: L R
Частота : 48,0 КГц
Битовая глубина : 16 бит
Метод сжатия : С потерями
Размер потока : 181 Мбайт (1%)
Заголовок : MVO (R5)
Язык : Russian
Default : Нет
Forced : Нет

Аудио #3
Идентификатор : 4
Формат : AC-3
Формат/Информация : Audio Coding 3
Расширение режима : CM (complete main)
Параметр Endianness формата : Big
Идентификатор кодека : A_AC3
Продолжительность : 2 ч. 11 м.
Вид битрейта : Постоянный
Битрейт : 192 Кбит/сек
Каналы : 2 канала
Расположение каналов : Front: L R
Частота : 48,0 КГц
Битовая глубина : 16 бит
Метод сжатия : С потерями
Размер потока : 181 Мбайт (1%)
Заголовок : AVO (Алексей Михалёв)
Язык : Russian
Default : Нет
Forced : Нет

Аудио #4
Идентификатор : 5
Формат : DTS
Формат/Информация : Digital Theater Systems
Режим : 16
Параметр Endianness формата : Big
Идентификатор кодека : A_DTS
Продолжительность : 2 ч. 11 м.
Вид битрейта : Постоянный
Битрейт : 1509 Кбит/сек
Каналы : 6 каналов
Расположение каналов : Front: L C R, Side: L R, LFE
Частота : 48,0 КГц
Битовая глубина : 24 бит
Метод сжатия : С потерями
Размер потока : 1,39 Гбайт (7%)
Заголовок : Original
Язык : English
Default : Нет
Forced : Нет

Текст
Идентификатор : 6
Формат : UTF-8
Идентификатор кодека : S_TEXT/UTF8
Идентификатор кодека/Информация : UTF-8 Plain Text
Заголовок : английские
Язык : English
Default : Нет
Forced : Нет

Меню
00:00:00.000 : :Chapter 01
00:05:34.792 : :Chapter 02
00:22:29.263 : :Chapter 03
00:28:01.596 : :Chapter 04
00:35:44.851 : :Chapter 05
00:48:28.030 : :Chapter 06
00:59:05.416 : :Chapter 07
01:11:14.937 : :Chapter 08
01:28:18.376 : :Chapter 09
01:31:47.667 : :Chapter 10
01:38:52.968 : :Chapter 11
01:43:22.529 : :Chapter 12
01:45:21.564 : :Chapter 13
01:49:55.213 : :Chapter 14
02:03:33.322 : :Chapter 15
02:08:48.470 : :Chapter 16
02:11:55.157 : :Chapter 17
pb.wtf



Скачать Язык нежности через торрент http://i68.fastpic.ru/big/2014/1205/58/a5c8fa13a94085f768ce526827024a58.jpg Скачать фильм Язык нежности через торрент бесплантно в хорошем качестве Описание: Любая мaть лучше дoчери знает, что той нужно для счастья. Аврорa Гринуэй oчень любит свою дочь Эмму, но не всегдa этo пoказывaет. ... 7.5 10 2
Торрент: Зарегистрирован [2014-12-06 12:59] · скачан: 9 раз
Статус: √ проверено
Размер: 19.12 GB
Как cкачать? Как скачать Язык нежности через торрент | qTorrent

% Раздел Тема Автор DL S | L
Фильмы [HD 720p, 1080p] (Хороший звук DUB, MVO) [ 7.78 GB ] Язык нежности / Terms Of Endearment [1983 BDRip 720p] MVO AVO msltel Скачать
1 | 0

28-11-2019 20:33  

Отключить всю рекламу на сайте

    Дорогой пользователь! Огромная просьба, поблагодарите релизера, оцените раздачу и оставьте свои комментарий, если Вы скачали Язык нежности через торрент бесплатно! Внесите свою лепту в развитие PiratBit!
    Комментировать посты могут только пользователи прошедшие не сложную регистрацию
    Показать сообщения:    

    Язык нежности через торрент
    Скачать бесплатно Язык нежности
    Язык нежности скачать торрент
    Язык нежности смотреть онлайн
    Cкачать фильм Язык нежности бесплатно
    Язык нежности скачать торрент в хорошем качестве
    Язык нежности смотреть онлайн бесплатно в хорошем качестве


    Вы не можете начинать темы
    Вы не можете отвечать на сообщения
    Вы не можете редактировать свои сообщения
    Вы не можете удалять свои сообщения
    Вы не можете голосовать в опросах
    Вы не можете прикреплять файлы к сообщениям
    Вы можете скачивать файлы