Всегда рабочее зеркало без VPN и Proxy просто перед .vidak.icu напиши любое слово или цифру, Пример http://cjwm.vidak.icu

MVO

MVO

1 сезон

1

1 сезон

iTunes

1 сезон

13

1 сезон

Deluxe

pack

Рекомендуем

Repack

30

ВАЖНО

RePack

MK11

RePack

jed

RePack

fifa19

RePack

RDR2

RePack

NEED FOR SPEED™ PAYBACK

Кинопоиск HD

6 сезон

 Острые козырьки 6 сезон

Все сериалы

все сериалы на PB.wtf

RePack

FAR CRY 5
  
Magnet ссылка

Возлюбленные / The One I Love (Чарли МакДауэлл ) [2014, драма, мелодрама, комедия, HDRip, Любительский (одноголосый)[Lord32x] pb.wtf

Возлюбленные через торрент pb.wtf

Размер: 1.47 GB | Добавлен: 7 лет 8 мес. назад | Торрент скачан:196 раз
Смотреть онлайн Возлюбленные | Скачать    Ребята, помогите собрать деньги на оплату серверов!!!

06-12-2014 14:59 Возлюбленные Скачать торрент  


Возлюбленные / The One I Love


Год выпуска:2014
Страна: США
Жанр:драма, мелодрама, комедия
Продолжительность:01:31:19
Перевод:Любительский (одноголосый)[Lord32x]
Режиссер:Чарли МакДауэлл

  • В ролях:

    Марк Дюпласс (Ethan), Элизабет Мосс (Sophie), Тед Дэнсон (The Therapist), Киана Кейсон (Waitress), Кейтлин Додсон (Diner Patron), Лори Фаррар (Diner Patron), Марли Мэтлин (Diner Patron), Tim Peddicord (Diner Patron), Райан Педерсон (Diner Patron), Brett Bietz (Doug, озвучка), Шон О’Мэлли (Dave, озвучка), Мэри Стинберген (Mom, озвучка)
  • Описание:
    Итан и Софи пытаются спасти свой разваливающийся брак при помощи психотерапевта. Когда его методы не срабатывают, он предлагает супругам последнее: отправиться на отдых в некое красивое уединенное место, обещая при этом почти стопроцентный результат. Оказавшись в уединении, Итан и Софи постепенно начинают замечать странные вещи...

  • Мировая премьера:21 января 2014

    Качество: HDRip
    Формат:AVI
    Видео кодек: XviD
    Аудио кодек:AC3
    Видео: XviD, 720x304 (2.35:1), 1903 kbps, 23,976 fps, 0,363 bpp
    Аудио: AC3 / 5.1 / 48 kHz / 384 kbps / 16 bit


    Код:

    General
    Complete name                            : D:\Торенты\The One I Love (2014).avi
    Format                                   : AVI
    Format/Info                              : Audio Video Interleave
    File size                                : 1.47 GiB
    Duration                                 : 1h 31mn
    Overall bit rate                         : 2 297 Kbps
    Writing application                      : VirtualDubMod 1.5.10.3 | www.virtualdub-fr.org || (build 2550/release)
    Writing library                          : VirtualDubMod build 2550/release

    Video
    ID                                       : 0
    Format                                   : MPEG-4 Visual
    Format profile                           : Advanced [email protected]
    Format settings, BVOP                    : 1
    Format settings, QPel                    : No
    Format settings, GMC                     : No warppoints
    Format settings, Matrix                  : Default (H.263)
    Codec ID                                 : XVID
    Codec ID/Hint                            : XviD
    Duration                                 : 1h 31mn
    Bit rate                                 : 1 904 Kbps
    Width                                    : 720 pixels
    Height                                   : 304 pixels
    Display aspect ratio                     : 2.35:1
    Frame rate                               : 23.976 fps
    Color space                              : YUV
    Chroma subsampling                       : 4:2:0
    Bit depth                                : 8 bits
    Scan type                                : Progressive
    Compression mode                         : Lossy
    Bits/(Pixel*Frame)                       : 0.363
    Stream size                              : 1.21 GiB (83%)
    Writing library                          : XviD 1.2.1 (UTC 2008-12-04)

    Audio
    ID                                       : 1
    Format                                   : AC-3
    Format/Info                              : Audio Coding 3
    Mode extension                           : CM (complete main)
    Codec ID                                 : 2000
    Duration                                 : 1h 31mn
    Bit rate mode                            : Constant
    Bit rate                                 : 384 Kbps
    Channel(s)                               : 6 channels
    Channel positions                        : Front: L C R, Side: L R, LFE
    Sampling rate                            : 48.0 KHz
    Bit depth                                : 16 bits
    Compression mode                         : Lossy
    Stream size                              : 251 MiB (17%)
    Alignment                                : Split accross interleaves
    Interleave, duration                     : 42 ms (1.00 video frame)
    Interleave, preload duration             : 500 ms

    Скриншоты:

    Срочно! Нужна помощь! Жмите

    © Оформление by Ворон
    pb.wtf



  • Скачать Возлюбленные через торрент https://pic1.kartinco.top/images/61/ordi9.jpg Скачать, смотреть онлайн Возлюбленные бесплантно в хорошем качестве Описание:Итан и Софи пытаются спасти свой разваливающийся брак при помощи психотерапевта. Когда его методы не срабатывают, он предлагает ... 10 10 5
    Торрент: Зарегистрирован [2014-12-06 14:59] · скачан: 196 раз
    Статус: T временная
    Размер: 1.47 GB
    Как cкачать? Как скачать Возлюбленные через торрент | UTorrent

    28-11-2019 20:33  

    Отключить вcю реклaмy на сайте

    06-12-2014 15:22 Возлюбленные Скачать торрент  

    Чувак на картинке похож на молодого Мавродия)pb.wtf



      Дорогой пользователь! Огромная просьба, поблагодарите релизера, оцените раздачу и оставьте свои комментарий, если Вы скачали Возлюбленные через торрент бесплатно!
      Комментировать посты могут только пользователи прошедшие не сложную регистрацию
      Показать сообщения:    

      Возлюбленные через торрент
      Скачать бесплатно Возлюбленные
      Возлюбленные скачать торрент
      Возлюбленные смотреть онлайн
      Cкачать фильм Возлюбленные бесплатно
      Возлюбленные скачать торрент в хорошем качестве
      Возлюбленные смотреть онлайн бесплатно в хорошем качестве


      Вы не можете начинать темы
      Вы не можете отвечать на сообщения
      Вы не можете редактировать свои сообщения
      Вы не можете удалять свои сообщения
      Вы не можете голосовать в опросах
      Вы не можете прикреплять файлы к сообщениям
      Вы можете скачивать файлы