2 сезон

iTunes

MVO

1

2 сезон

iTunes

iTunes

1 сезон

RePack

30

Новинка

ВАЖНО

ИГРА 18+

pack

RePack

MK11
pack

Легкие деньги

RePack

jed

RePack

fifa19

RePack

RDR2

RePack

NEED FOR SPEED™ PAYBACK

4 сезон

9 сезон

Бесстыжие 9 сезон

Все сериалы

все сериалы на PB.wtf

RePack

FAR CRY 5

Anonymous, доброй ночи, мы не успеваем собрать деньги на оплату серверов за декабрь и январь, помогите нам пожалуйста в это трудное время. В качестве благодарности мы отключим Вам всю рекламу на сайте (укажите свой ник в строку Ваше имя)!

×
  
Magnet ссылка

Техасская резня бензопилой 3D / Texas Chainsaw 3D (Джон Льюсенхоп / John Luessenhop) [2013, США, ужасы, триллер, HDRip] DUB Лицензия pb.wtf

Техасская резня бензопилой 3D через торрент pb.wtf

Размер: 1.37 GB | Добавлен: 6 лет 1 мес. назад | Торрент скачан:381 раз
Скачать  

07-12-2014 00:45 Техасская резня бензопилой 3D Скачать торрент  

Техасская резня бензопилой 3D / Texas Chainsaw 3D«Evil wears many faces»
Год выпуска: 2013
Страна: США
Жанр: ужасы, триллер
Продолжительность: 01:31:57
Перевод: Дубляж - [Лицензия]
Субтитры: Отсутствует
Режиссер: Джон Льюсенхоп / John Luessenhop
В ролях:


Александра Даддарио (Heather Miller), Дэн Игер (Leatherface), Трей Сонгз (Ryan), Таня Рэймонд (Nikki), Том Бэрри (Sheriff Hooper), Пол Рэй (Burt Hartman), Билл Моусли (Drayton Sawyer), Скотт Иствуд (Carl), Шон Сайпос (Darryl), Керам Малики-Санчес (Kenny), Джеймс МакДональд (Officer Marvin), Ричард Рили (Farnsworth)

Описание:
Местный шериф согласился организовать для Джеба Сойера, который и скрывался под Кожаным лицом, честный судебный процесс и предоставить ему адвоката. Однако его намерениям мешает мэр, который ведет за собой толпу людей, жаждущих линчевать кровавого маньяка. Когда ситуация начинает выходить из-под контроля, а горожане принимаются ладить петли для убийцы, кто-то бросает в дом Сойера бутылку с зажигательной смесью. Дом сгорает, а вместе с ним в огне гибнут и все, кто в нем находился, включая самого Джеба и его отца. Разумеется, спустя определенное время убийства с помощью бензопилы начинаются снова. Первое предположение шерифа - Джеб Сойер выжил и решил отомстить. Но он ли это на самом деле? И если нет, то кто?

Рейтинг:
Бюджет:$10 000 000
MPAA: R - Лицам до 17 лет обязательно присутствие взрослого
Качество: HDRip
Формат: AVI
Видео кодек:XviD
Аудио кодек:AC3
Видео: XviD, 720x304 (2.35:1), 1670 kbps, 23,976 fps, 0,318 bpp
Аудио: AC3 / 5.1 / 48 kHz / 448 kbps / 16 bit

General
Complete name : D:\Users\_KaisiK_\uTorrent\КИНО\Tehasskaja.reznja.benzopiloj.2013.D.HDRip.1400MB.avi
Format : AVI
Format/Info : Audio Video Interleave
File size : 1.37 GiB
Duration : 1h 31mn
Overall bit rate : 2 128 Kbps
Writing application : VirtualDubMod 1.5.10.2 (build 2540/release)
Writing library : VirtualDubMod build 2540/release

Video
ID : 0
Format : MPEG-4 Visual
Format profile : Advanced Simple@L5
Format settings, BVOP : 2
Format settings, QPel : No
Format settings, GMC : No warppoints
Format settings, Matrix : Default (MPEG)
Codec ID : XVID
Codec ID/Hint : XviD
Duration : 1h 31mn
Bit rate : 1 671 Kbps
Width : 720 pixels
Height : 304 pixels
Display aspect ratio : 2.35:1
Frame rate : 23.976 fps
Color space : YUV
Chroma subsampling : 4:2:0
Bit depth : 8 bits
Scan type : Progressive
Compression mode : Lossy
Bits/(Pixel*Frame) : 0.318
Stream size : 1.07 GiB (79%)
Writing library : XviD 1.2.1 (UTC 2008-12-04)

Audio
ID : 1
Format : AC-3
Format/Info : Audio Coding 3
Mode extension : CM (complete main)
Codec ID : 2000
Duration : 1h 31mn
Bit rate mode : Constant
Bit rate : 448 Kbps
Channel(s) : 6 channels
Channel positions : Front: L C R, Side: L R, LFE
Sampling rate : 48.0 KHz
Bit depth : 16 bits
Compression mode : Lossy
Stream size : 295 MiB (21%)
Alignment : Split accross interleaves
Interleave, duration : 42 ms (1.00 video frame)
Interleave, preload duration : 500 ms

[/code]
pb.wtf



Скачать Техасская резня бензопилой 3D через торрент http://i66.fastpic.ru/big/2014/1207/fe/dbcd92480c94e1daa4458ab5daeb5efe.png Скачать фильм Техасская резня бензопилой 3D через торрент бесплантно в хорошем качестве Описание: Местный шериф согласился организовать для Джеба Сойера, который и скрывался под Кожаным лицом, честный судебный процесс и ... 9.1 10 15
Торрент: Зарегистрирован [2014-12-07 00:45] · скачан: 381 раз
Статус: √ проверено
Размер: 1.37 GB
Как cкачать? Как скачать Техасская резня бензопилой 3D через торрент | UTorrent

% Раздел Тема Автор DL S | L
Фильмы [HD 720p, 1080p] (Хороший звук DUB, MVO) [ 8.53 GB ] Техасская резня бензопилой 3D / Texas Chainsaw 3D [2013 BDRip 1080p] DUB Ворон Скачать
1 | 0


Последний раз редактировалось: _KaisiK_ (2014-12-21 11:02), всего редактировалось 1 раз

28-11-2019 20:33  

Отключить всю рекламу на сайте

07-12-2014 01:15 Техасская резня бензопилой 3D Скачать торрент  

давно ждал норм звук,спасибоpb.wtf



07-12-2014 02:31 Техасская резня бензопилой 3D Скачать торрент  

Новые фильмы?pb.wtf



07-12-2014 05:16 Техасская резня бензопилой 3D Скачать торрент  

супер трешак. спасибо pb.wtf



    Дорогой пользователь! Огромная просьба, поблагодарите релизера, оцените раздачу и оставьте свои комментарий, если Вы скачали Техасская резня бензопилой 3D через торрент бесплатно! Внесите свою лепту в развитие PiratBit!
    Комментировать посты могут только пользователи прошедшие не сложную регистрацию
    Показать сообщения:    

    Техасская резня бензопилой 3D через торрент
    Скачать бесплатно Техасская резня бензопилой 3D
    Техасская резня бензопилой 3D скачать торрент
    Техасская резня бензопилой 3D смотреть онлайн
    Cкачать фильм Техасская резня бензопилой 3D бесплатно
    Техасская резня бензопилой 3D скачать торрент в хорошем качестве
    Техасская резня бензопилой 3D смотреть онлайн бесплатно в хорошем качестве


    Вы не можете начинать темы
    Вы не можете отвечать на сообщения
    Вы не можете редактировать свои сообщения
    Вы не можете удалять свои сообщения
    Вы не можете голосовать в опросах
    Вы не можете прикреплять файлы к сообщениям
    Вы можете скачивать файлы