Ссылка на приватное зеркало нашего сайта всего за 1$. Внимание количество ограничено!!!

2 сезон

iTunes

1 сезон

1

2 сезон

2 сезон

iTunes

1 сезон

RePack

30

Ultimate

ВАЖНО

ИГРА 18+

pack

RePack

MK11
pack

Забери бонус

RePack

jed

!!Акция!!

Alien_Rage

RePack

fifa19

RePack

Assassins Creed: Odyssey

RePack

NEED FOR SPEED™ PAYBACK

4 сезон

9 сезон

Бесстыжие 9 сезон

Все сериалы

все сериалы на PB.wtf

RePack

FAR CRY 5
  

Это, блин, рождественское чудо / A Merry Friggin' Christmas (Тристрам Шапиро / Tristram Shapeero) [2014, США, комедия, BDRip 720p, Любительский (одноголосый) [R.A.I.M.] pb.wtf

Это, блин, рождественское чудо через торрент pb.wtf

Размер: 4.09 GB | Добавлен: 5 лет 11 мес. назад | Торрент скачан:80 раз
Скачать  

07-12-2014 04:30 Это, блин, рождественское чудо Скачать торрент  

Это, блин, рождественское чудо / A Merry Friggin' Christmas
«Провести его с теми, кого вы ненавидите»


  • Год выпуска: 2014
  • Страна: США
  • Жанр: комедия
  • Продолжительность: 01:21:45
  • Перевод: Любительский (одноголосый) [R.A.I.M.] - перевод на русский язык [Сергей Гиллан]

  • Субтитры: русские,английские
  • Режиссер: Тристрам Шапиро / Tristram Shapeero
  • В ролях:

    Джоэл МакХэйл (Boyd Mitchler), Лорен Грэм (Luann Mitchler), Кларк Дьюк (Nelson), Оливер Платт (Hobo Santa), Венди МакЛендон-Кови (Shauna), Тим Хайдекер (Dave), Кэндис Берген (Donna), Робин Уильямс (Mitch), Мэтт Джонс (Cowboy Dick), Джеффри Тэмбор (Snowman, озвучка), Пирс Гэнон (Douglas), Райан Ли (Rance)

  • Описание:
    Бойд Митчлер и его жена Луанн решают провести Рождество с отцом Бойда Митчем и его, мягко выражаясь, странноватым семейством. Сообразив, что он забыл дома все подарки, Бойд в компании брата и отца прыгает в машину и пытается совершить невозможное: съездить домой и вернуться обратно до рассвета.
  • Рейтинг:



  • Качество: BDRip 720p
  • Формат: :MKV
  • Видео кодек: AVC
  • Аудио кодек: AC3, DTS
  • Видео: 1280x720 (16:9), 5125 kbps, 23,976 fps, 0,232 bpp
  • Аудио №1: русский / 5.1 / 48 kHz / 384 kbps / 16 bit
  • Аудио №2: английский / 5.1 / 48 kHz / 1510 kbps / 24 bit
  • Релиз от: GEKADOL

    Код:

    General
    Unique ID                                : 173795912507004342687851645326093223074 (0x82BFE00DD2E4418081930E170B8484A2)
    Complete name                            : I:\A.Merry.Friggin.Christmas.2014.Blu.Ray.720p.CINEMANIA.mkv
    Format                                   : Matroska
    Format version                           : Version 4 / Version 2
    File size                                : 4.09 GiB
    Duration                                 : 1h 21mn
    Overall bit rate                         : 7 162 Kbps
    Movie name                               : Release Group CINEMANIA
    Encoded date                             : UTC 2014-12-06 18:36:07
    Writing application                      : mkvmerge v7.3.0 ('Nouages') 64bit built on Oct 22 2014 18:53:34
    Writing library                          : libebml v1.3.0 + libmatroska v1.4.1

    Video
    ID                                       : 1
    Format                                   : AVC
    Format/Info                              : Advanced Video Codec
    Format profile                           : High@L4.1
    Format settings, CABAC                   : Yes
    Format settings, ReFrames                : 9 frames
    Codec ID                                 : V_MPEG4/ISO/AVC
    Duration                                 : 1h 21mn
    Bit rate                                 : 5 125 Kbps
    Width                                    : 1 280 pixels
    Height                                   : 720 pixels
    Display aspect ratio                     : 16:9
    Frame rate                               : 23.976 fps
    Color space                              : YUV
    Chroma subsampling                       : 4:2:0
    Bit depth                                : 8 bits
    Scan type                                : Progressive
    Bits/(Pixel*Frame)                       : 0.232
    Stream size                              : 2.93 GiB (72%)
    Title                                    : Release Group CINEMANIA
    Writing library                          : x264 core 142 r2409kMod d6b4e63
    Encoding settings                        : cabac=1 / ref=9 / deblock=1:-3:-3 / analyse=0x3:0x133 / me=umh / subme=11 / psy=1 / fade_compensate=0.00 / psy_rd=1.00:0.00 / mixed_ref=1 / me_range=24 / chroma_me=1 / trellis=2 / 8x8dct=1 / cqm=0 / deadzone=21,11 / fast_pskip=0 / chroma_qp_offset=-2 / threads=6 / lookahead_threads=1 / sliced_threads=0 / nr=0 / decimate=0 / interlaced=0 / bluray_compat=0 / constrained_intra=0 / fgo=0 / bframes=6 / b_pyramid=2 / b_adapt=2 / b_bias=0 / direct=3 / weightb=1 / open_gop=0 / weightp=2 / keyint=250 / keyint_min=24 / scenecut=40 / intra_refresh=0 / rc=crf / mbtree=0 / crf=14.5000 / qcomp=0.60 / qpmin=0 / qpmax=69 / qpstep=4 / ip_ratio=1.40 / pb_ratio=1.30 / aq=2:0.80
    Language                                 : English
    Default                                  : Yes
    Forced                                   : No
    Matrix coefficients                      : BT.709-5, BT.1361, IEC 61966-2-4 709, SMPTE RP177

    Audio #1
    ID                                       : 2
    Format                                   : AC-3
    Format/Info                              : Audio Coding 3
    Mode extension                           : CM (complete main)
    Codec ID                                 : A_AC3
    Duration                                 : 1h 21mn
    Bit rate mode                            : Constant
    Bit rate                                 : 384 Kbps
    Channel(s)                               : 6 channels
    Channel positions                        : Front: L C R, Side: L R, LFE
    Sampling rate                            : 48.0 KHz
    Bit depth                                : 16 bits
    Compression mode                         : Lossy
    Stream size                              : 225 MiB (5%)
    Title                                    : RAIM
    Language                                 : Russian
    Default                                  : Yes
    Forced                                   : Yes

    Audio #2
    ID                                       : 3
    Format                                   : DTS
    Format/Info                              : Digital Theater Systems
    Codec ID                                 : A_DTS
    Duration                                 : 1h 21mn
    Bit rate mode                            : Constant
    Bit rate                                 : 1 510 Kbps
    Channel(s)                               : 6 channels
    Channel positions                        : Front: L C R, Side: L R, LFE
    Sampling rate                            : 48.0 KHz
    Bit depth                                : 24 bits
    Compression mode                         : Lossy
    Stream size                              : 883 MiB (21%)
    Language                                 : English
    Default                                  : No
    Forced                                   : No

    Text #1
    ID                                       : 4
    Format                                   : UTF-8
    Codec ID                                 : S_TEXT/UTF8
    Codec ID/Info                            : UTF-8 Plain Text
    Language                                 : Russian
    Default                                  : Yes
    Forced                                   : Yes

    Text #2
    ID                                       : 5
    Format                                   : UTF-8
    Codec ID                                 : S_TEXT/UTF8
    Codec ID/Info                            : UTF-8 Plain Text
    Language                                 : English
    Default                                  : No
    Forced                                   : No

    Menu
    00:00:00.000                             : en:00:00:00.000
    00:04:14.171                             : en:00:04:14.171
    00:08:17.163                             : en:00:08:17.163
    00:12:52.814                             : en:00:12:52.814
    00:17:54.448                             : en:00:17:54.448
    00:22:45.864                             : en:00:22:45.864
    00:26:23.165                             : en:00:26:23.165
    00:33:51.363                             : en:00:33:51.363
    00:38:53.581                             : en:00:38:53.581
    00:43:15.927                             : en:00:43:15.927
    00:48:37.206                             : en:00:48:37.206
    00:52:31.357                             : en:00:52:31.357
    00:57:53.929                             : en:00:57:53.929
    01:03:03.738                             : en:01:03:03.738
    01:08:06.708                             : en:01:08:06.708
    01:13:34.619                             : en:01:13:34.619


    Скриншоты:



    pb.wtf



  • Скачать Это, блин, рождественское чудо через торрент http://i66.fastpic.ru/big/2014/1207/39/c3a316883f8c99658f1c73127c152739.jpg Скачать фильм Это, блин, рождественское чудо через торрент бесплантно в хорошем качестве Описание: Бойд Митчлер и его жена Луанн решают провести Рождество с отцом Бойда Митчем и его, мягко выражаясь, странноватым семейством. ... 10 10 5
    Info! Золотая раздача, скачанное не засчитывается.
    Торрент: Зарегистрирован [2014-12-07 04:30] · скачан: 80 раз
    Статус: T временная
    Размер: 4.09 GB
    Как cкачать? Как скачать Это, блин, рождественское чудо через торрент | qTorrent

    28-11-2019 20:33  

    Отключить всю рекламу на сайте

      Дорогой пользователь! Огромная просьба, поблагодарите релизера, оцените раздачу и оставьте свои комментарий, если Вы скачали Это, блин, рождественское чудо через торрент бесплатно! Внесите свою лепту в развитие PiratBit!
      Комментировать посты могут только пользователи прошедшие не сложную регистрацию
      Показать сообщения:    

      Это, блин, рождественское чудо через торрент
      Скачать бесплатно Это, блин, рождественское чудо
      Это, блин, рождественское чудо скачать торрент
      Это, блин, рождественское чудо смотреть онлайн
      Cкачать фильм Это, блин, рождественское чудо бесплатно
      Это, блин, рождественское чудо скачать торрент в хорошем качестве
      Это, блин, рождественское чудо смотреть онлайн бесплатно в хорошем качестве


      Вы не можете начинать темы
      Вы не можете отвечать на сообщения
      Вы не можете редактировать свои сообщения
      Вы не можете удалять свои сообщения
      Вы не можете голосовать в опросах
      Вы не можете прикреплять файлы к сообщениям
      Вы можете скачивать файлы