Всегда рабочее зеркало без VPN и Proxy просто перед .vidak.icu напиши любое слово или цифру, Пример http://7hfz.vidak.icu

Лицензия

MVO

1 сезон

1

1 сезон

iTunes

1 сезон

13

1 сезон

Deluxe

pack

Рекомендуем

Repack

30

ВАЖНО

RePack

MK11

RePack

jed

RePack

fifa19

RePack

RDR2

RePack

NEED FOR SPEED™ PAYBACK

Кинопоиск HD

6 сезон

 Острые козырьки 6 сезон

Все сериалы

все сериалы на PB.wtf

RePack

FAR CRY 5
  
Magnet ссылка

Это, блин, рождественское чудо / A Merry Friggin' Christmas (Тристрам Шапиро / Tristram Shapeero) [2014, США, комедия, HDRip, Любительский (одноголосый) [R.A.I.M.] pb.wtf

Это, блин, рождественское чудо через торрент pb.wtf

Размер: 1.37 GB | Добавлен: 7 лет 8 мес. назад | Торрент скачан:323 раза
Смотреть онлайн Это, блин, рождественское чудо | Скачать    Ребята, помогите собрать деньги на оплату серверов!!!

07-12-2014 05:31 Это, блин, рождественское чудо Скачать торрент  

Это, блин, рождественское чудо / A Merry Friggin' Christmas
«Провести его с теми, кого вы ненавидите»


  • Год выпуска: 2014
  • Страна: США
  • Жанр: комедия
  • Продолжительность: 01:21:45
  • Перевод: Любительский (одноголосый) [R.A.I.M.] - перевод на русский язык [Сергей Гиллан]

  • Режиссер: Тристрам Шапиро / Tristram Shapeero
  • В ролях:

    Джоэл МакХэйл (Boyd Mitchler), Лорен Грэм (Luann Mitchler), Кларк Дьюк (Nelson), Оливер Платт (Hobo Santa), Венди МакЛендон-Кови (Shauna), Тим Хайдекер (Dave), Кэндис Берген (Donna), Робин Уильямс (Mitch), Мэтт Джонс (Cowboy Dick), Джеффри Тэмбор (Snowman, озвучка), Пирс Гэнон (Douglas), Райан Ли (Rance)

  • Описание:
    Бойд Митчлер и его жена Луанн решают провести Рождество с отцом Бойда Митчем и его, мягко выражаясь, странноватым семейством. Сообразив, что он забыл дома все подарки, Бойд в компании брата и отца прыгает в машину и пытается совершить невозможное: съездить домой и вернуться обратно до рассвета.
  • Рейтинг:



  • Качество: HDRip
  • Формат: :AVI
  • Видео кодек: XviD
  • Аудио кодек: AC3
  • Видео: 720x408 (16:9), 2008 kbps, 23,976 fps, 0,285 bpp
  • Аудио: 5.1 / 48 kHz / 384 kbps / 16 bit
  • Релиз от: GEKADOL

    Код:

    General
    Complete name                            : I:\A.Merry.Friggin.Christmas.2014.L1.HDRip.1400MB.avi
    Format                                   : AVI
    Format/Info                              : Audio Video Interleave
    File size                                : 1.37 GiB
    Duration                                 : 1h 21mn
    Overall bit rate                         : 2 402 Kbps
    Writing application                      : VirtualDubMod 1.5.10.2 (build 2540/release)
    Writing library                          : VirtualDubMod build 2540/release

    Video
    ID                                       : 0
    Format                                   : MPEG-4 Visual
    Format profile                           : Advanced [email protected]
    Format settings, BVOP                    : 2
    Format settings, QPel                    : No
    Format settings, GMC                     : No warppoints
    Format settings, Matrix                  : Default (H.263)
    Codec ID                                 : XVID
    Codec ID/Hint                            : XviD
    Duration                                 : 1h 21mn
    Bit rate                                 : 2 008 Kbps
    Width                                    : 720 pixels
    Height                                   : 408 pixels
    Display aspect ratio                     : 16:9
    Frame rate                               : 23.976 fps
    Color space                              : YUV
    Chroma subsampling                       : 4:2:0
    Bit depth                                : 8 bits
    Scan type                                : Progressive
    Compression mode                         : Lossy
    Bits/(Pixel*Frame)                       : 0.285
    Stream size                              : 1.15 GiB (84%)
    Writing library                          : XviD 1.2.1 (UTC 2008-12-04)

    Audio
    ID                                       : 1
    Format                                   : AC-3
    Format/Info                              : Audio Coding 3
    Mode extension                           : CM (complete main)
    Codec ID                                 : 2000
    Duration                                 : 1h 21mn
    Bit rate mode                            : Constant
    Bit rate                                 : 384 Kbps
    Channel(s)                               : 6 channels
    Channel positions                        : Front: L C R, Side: L R, LFE
    Sampling rate                            : 48.0 KHz
    Bit depth                                : 16 bits
    Compression mode                         : Lossy
    Stream size                              : 225 MiB (16%)
    Alignment                                : Split accross interleaves
    Interleave, duration                     : 42 ms (1.00 video frame)
    Interleave, preload duration             : 500 ms


    Скриншоты:



    pb.wtf



  • Скачать Это, блин, рождественское чудо через торрент http://i65.fastpic.ru/big/2014/1207/34/5056e513ff5e28b3542ac4fc47a46034.jpg Скачать, смотреть онлайн Это, блин, рождественское чудо бесплантно в хорошем качестве Описание: Бойд Митчлер и его жена Луанн решают провести Рождество с отцом Бойда Митчем и его, мягко выражаясь, странноватым семейством. ... 10 10 11
    Торрент: Зарегистрирован [2014-12-07 05:31] · скачан: 323 раз
    Статус: √ проверено
    Размер: 1.37 GB
    Как cкачать? Как скачать Это, блин, рождественское чудо через торрент | UTorrent

    28-11-2019 20:33  

    Отключить вcю реклaмy на сайте

      Дорогой пользователь! Огромная просьба, поблагодарите релизера, оцените раздачу и оставьте свои комментарий, если Вы скачали Это, блин, рождественское чудо через торрент бесплатно!
      Комментировать посты могут только пользователи прошедшие не сложную регистрацию
      Показать сообщения:    

      Это, блин, рождественское чудо через торрент
      Скачать бесплатно Это, блин, рождественское чудо
      Это, блин, рождественское чудо скачать торрент
      Это, блин, рождественское чудо смотреть онлайн
      Cкачать фильм Это, блин, рождественское чудо бесплатно
      Это, блин, рождественское чудо скачать торрент в хорошем качестве
      Это, блин, рождественское чудо смотреть онлайн бесплатно в хорошем качестве


      Вы не можете начинать темы
      Вы не можете отвечать на сообщения
      Вы не можете редактировать свои сообщения
      Вы не можете удалять свои сообщения
      Вы не можете голосовать в опросах
      Вы не можете прикреплять файлы к сообщениям
      Вы можете скачивать файлы