Доктор Стрэндж

Лицензия

Добыча

Дубляж

Дом дракона

1 сезон

Тор

Дубляж

В эфире

Дубляж

Там, где раки поют

MVO

Властелин колец

1 сезон

Deluxe

pack

Рекомендуем

30

Пиратка

ВАЖНО

ВАЖНО

Ghostwire

Пиратка

jed

RePack

nioh2

RePack

RDR2

RePack

NEED FOR SPEED™ PAYBACK

RePack

скачать торрент

Кинопоиск HD

Острые козырьки 6 сезон

6 сезон

FAR CRY 6

RePack

скачать торрент

Лицензия

скачать торрент

MVO

1

1 сезон

скачать торрент

1 сезон

скачать торрент

Лицензия

  

Тайна в его глазах / El secreto de sus ojos (Хуан Хосе Кампанелла / Juan Jose Campanella) [2009 г., Триллер, драма, криминал, детектив BDRemux, лицензия]

Тайна в его глазах через торрент pb.wtf

Размер: 30.23 GB | Добавлен: 7 лет 11 мес. назад | Торрент скачан:22 раза
Смотреть онлайн | Скачать   

07-12-2014 15:25 Тайна в его глазах Скачать торрент  

:

Название: Тайна в его глазах
Оригинальное название: El secreto de sus ojos
Год выхода: 2009

Жанр: триллер, драма, детектив

Режиссер: Хуан Хосе Кампанелла

В ролях: Рикардо Дарин, Соледад Вильямиль, Гильермо Франселла, Пабло Раго, Хавьер Годино, Карла Кеведо, Барбара Палладино, Руди Романо, Алехандра Абеленда, Марио Аларкон

Описание: Бенхамин Эспосито — судебный служащий, который решает написать роман об одном уголовном деле, в котором он был свидетелем и главным действующим лицом…



Выпущено: Испания, Аргентина
Продолжительность: 02:09:15
Перевод: Профессиональный многоголосый, любительский одноголосый, авторский

Файл

Формат: MKV
Качество: BDRemux
Видео кодек: AVC
Аудио кодек: AC3 / DTS-HD MA
Видео: MPEG-4 AVC, 24947 Кбит/с, 1920x1080, 23.976 кадр/с
Аудио#1: Russian (AC3, 5.1, 448 kbps / 48 kHz) (Многоголосый, лицензия)
Аудио#2: Russian (DTS-HD MA, 5.1, 3960 kbps / 48 kHz / 24-bit (DTS Core: 5.1 / 48 kHz / 1509 kbps / 24-bit)) (Авторский, Сербин)
Аудио#3: Spanish (DTS-HD MA, 5.1, 3930 kbps / 48 kHz / 24-bit (DTS Core: 5.1 / 48 kHz / 1509 kbps / 24-bit))
Аудио#4: Spanish (AC3, 2.0, 192 kbps / 48 kHz) (Комментарии режиссера)

Субтитры: Русские, английские
Общее

Уникальный идентификатор : 232579955002170006830032504857228922868 (0xAEF9451D6DAA996CA8BF955C3C92CFF4)

Полное имя : D:киноThe Secret in Their Eyes.2009.BDRemux.x264.RUS.DTS-HD.Voland_.mkv

Формат : Matroska

Версия формата : Version 2

Размер файла : 30,2 Гбайт

Продолжительность : 2 ч. 9 м.

Режим общего битрейта : Переменный

Общий поток : 33,5 Мбит/сек

Дата кодирования : UTC 2011-03-30 14:18:38

Программа кодирования : mkvmerge v3.4.0 ('Rapunzel') сборка от May 15 2010 09:38:20

Библиотека кодирования : libebml v0.8.0 + libmatroska v0.9.0

Видео

Идентификатор : 1

Формат : AVC

Формат/Информация : Advanced Video Codec

Профиль формата : [email protected]

Параметр CABAC формата : Да

Параметр ReFrames формата : 2 кадра

Идентификатор кодека : V_MPEG4/ISO/AVC

Продолжительность : 2 ч. 9 м.

Вид битрейта : Переменный

Ширина : 1920 пикселей

Высота : 1080 пикселей

Соотношение сторон : 3:2

Соотношение сторон в оригинале : 16:9

Режим частоты кадров : Постоянный

Частота кадров : 23,976 кадра/сек

Цветовое пространство : YUV

Субдискретизация насыщенности : 4:2:0

Битовая глубина : 8 бит

Тип развёртки : Прогрессивная

Default : Да

Forced : Нет

Аудио #1

Идентификатор : 2

Формат : AC-3

Формат/Информация : Audio Coding 3

Расширение режима : CM (complete main)

Параметр Endianness формата : Big

Идентификатор кодека : A_AC3

Продолжительность : 2 ч. 9 м.

Вид битрейта : Постоянный

Битрейт : 448 Кбит/сек

Каналы : 6 каналов

Расположение каналов : Front: L C R, Side: L R, LFE

Частота : 48,0 КГц

Битовая глубина : 16 бит

Метод сжатия : С потерями

Размер потока : 415 Мбайт (1%)

Заголовок : MVO, 448kbps, лицензия

Язык : Russian

Default : Да

Forced : Нет

Аудио #2

Идентификатор : 3

Формат : DTS

Формат/Информация : Digital Theater Systems

Профиль формата : MA / Core

Режим : 16

Параметр Endianness формата : Big

Идентификатор кодека : A_DTS

Продолжительность : 2 ч. 9 м.

Вид битрейта : Переменный

Битрейт : Неизвестно / 1509 Кбит/сек

Каналы : 6 каналов

Расположение каналов : Front: L C R, Side: L R, LFE

Частота : 48,0 КГц

Битовая глубина : 24 бит

Метод сжатия : Без потерь / Lossy

Заголовок : Авторский, Сербин, DTS-HD

Язык : Russian

Default : Нет

Forced : Нет

Аудио #3

Идентификатор : 4

Формат : DTS

Формат/Информация : Digital Theater Systems

Профиль формата : MA / Core

Режим : 16

Параметр Endianness формата : Big

Идентификатор кодека : A_DTS

Продолжительность : 2 ч. 9 м.

Вид битрейта : Переменный

Битрейт : Неизвестно / 1509 Кбит/сек

Каналы : 6 каналов

Расположение каналов : Front: L C R, Side: L R, LFE

Частота : 48,0 КГц

Битовая глубина : 24 бит

Метод сжатия : Без потерь / Lossy

Язык : Spanish

Default : Нет

Forced : Нет

Аудио #4

Идентификатор : 5

Формат : AC-3

Формат/Информация : Audio Coding 3

Профиль формата : Dolby Digital

Расширение режима : CM (complete main)

Параметр Endianness формата : Big

Идентификатор кодека : A_AC3

Продолжительность : 2 ч. 9 м.

Вид битрейта : Постоянный

Битрейт : 192 Кбит/сек

Каналы : 2 канала

Расположение каналов : Front: L R

Частота : 48,0 КГц

Битовая глубина : 16 бит

Метод сжатия : С потерями

Размер потока : 178 Мбайт (1%)

Заголовок : Commentary

Язык : Spanish

Default : Нет

Forced : Нет

Текст #1

Идентификатор : 6

Формат : UTF-8

Идентификатор кодека : S_TEXT/UTF8

Идентификатор кодека/Информация : UTF-8 Plain Text

Язык : Russian

Default : Нет

Forced : Нет

Текст #2

Идентификатор : 7

Формат : UTF-8

Идентификатор кодека : S_TEXT/UTF8

Идентификатор кодека/Информация : UTF-8 Plain Text

Язык : English

Default : Нет

Forced : Нет
скриншот   скриншот   скриншот  



Скачать Тайна в его глазах через торрент http://i31.fastpic.ru/big/2012/0102/26/de0d3498e47af27469de587305526526.png Скачать, смотреть онлайн Тайна в его глазах бесплантно в хорошем качестве Описание: Бенхамин Эспосито — судебный служащий, который решает написать роман об одном уголовном деле, в котором он был свидетелем и ... 10 10 3
Info! Золотая раздача, скачанное не засчитывается.
Торрент: Зарегистрирован [2014-12-07 15:25] · скачан: 22 раз
Статус: √ проверено
Размер: 30.23 GB
Как cкачать? Как скачать Тайна в его глазах через торрент | UTorrent

% Раздел Тема Автор DL S | L
Фильмы [HD 720p, 1080p] (Хороший звук DUB, MVO) [ 5.52 GB ] Тайна в его глазах / El secreto de sus ojos | | 720p ~Relizer~ Скачать
1 | 0

28-11-2019 20:33  


Отключить вcю реклaмy на сайте, в т.ч. и в плеере онлайн просмотра!

08-12-2014 04:05 Тайна в его глазах Скачать торрент  

поглянул комментарии-все очень хвалят фильм-значит надо смотреть однозначно



    Дорогой пользователь! Огромная просьба, поблагодарите релизера, оцените раздачу и оставьте свои комментарий, если Вы скачали Тайна в его глазах через торрент бесплатно!!
    Комментировать посты могут только пользователи прошедшие не сложную регистрацию
    Показать сообщения:    


    Тайна в его глазах через торрент
    Скачать бесплатно Тайна в его глазах
    Тайна в его глазах скачать торрент
    Тайна в его глазах смотреть онлайн
    Cкачать фильм Тайна в его глазах бесплатно
    Тайна в его глазах скачать торрент в хорошем качестве
    Тайна в его глазах смотреть онлайн бесплатно в хорошем качестве
    Вы не можете начинать темы
    Вы не можете отвечать на сообщения
    Вы не можете редактировать свои сообщения
    Вы не можете удалять свои сообщения
    Вы не можете голосовать в опросах
    Вы не можете прикреплять файлы к сообщениям
    Вы можете скачивать файлы
    Тайна в его глазах / El secreto de sus ojos [2009 г., Триллер, драма, криминал, детектив BDRemux, лицензия] смотреть онлайн, скачать торрент picoco.icu