1 сезон

1 сезон

iTunes

1

КиноПоиск HD

Кинопоиск HD

iTunes

13

1 сезон

RePack

30

Новинка

ВАЖНО

ИГРА 18+

pack

RePack

MK11
pack

Легкие деньги

RePack

jed

RePack

fifa19

RePack

RDR2

RePack

NEED FOR SPEED™ PAYBACK

4 сезон

9 сезон

Бесстыжие 9 сезон

Все сериалы

все сериалы на PB.wtf

RePack

FAR CRY 5
  
Magnet ссылка

Любовь, о которой молчат / Un amour a taire (Кристиан Фор / Christian Faure) [2005, Франция, драма, DVDRip,Любительский (одноголосый) pb.wtf

Любовь, о которой молчат через торрент pb.wtf

Размер: 1.37 GB | Добавлен: 6 лет 4 мес. назад | Торрент скачан:16 раз
Скачать  

07-12-2014 16:32 Любовь, о которой молчат Скачать торрент  

Любовь, о которой молчат / Un amour a taire

Год выпуска: 2005
Страна: Франция
Жанр: драма

Продолжительность: 01:42:46
Перевод: Любительский (одноголосый)
Субтитры: Нет
Режиссер: Кристиан Фор / Christian Faure
В ролях: Жереми Ренье (Jean), Луиз Моно (Sara / Yvonne / Petite-fille de Sara), Бруно Тодескини (Philippe), Николя Гоб (Jacques), Шарлотт де Тюркейм (Marcelle Lavandier), Мишель Йонас (Armand Lavandier), Оливье Саладен (Breton), Китодар Тодоров (Adjoint de Breton), Филипп Фор (Le passeur), Франсуа Арамбуру (La Baronne), Томас Сюир (Rudy), Юли Тошев (Chef de camp)
Описание:
Фильм о жизни геев и евреев при нацистах в годы войны. Париж, 1942 год. Сара, молодая еврейка, чью семью замучило гестапо, находит убежище, работая в семейной прачечной Жана Лавандрье, её давнего друга, в которого она была давно влюблена. Но Жан - гей, и он любит Филиппа, и им приходится скрывать свои отношения от нацистов и от пронацистского правительства Виши, как и Саре приходится скрывать, что она - еврейка. Но их жизнь подвергается опасности, когда домой возвращается Жак, младший брат Жана, который только что отсидел срок в тюрьме за торговлю на чёрном рынке. Жак всегда был влюблен в Сару, и теперь он хочет предать собственного брата, чтобы добиться любви Сары...
Рейтинг
kinopoisk.ru: 7.979 (281)
imdb.com: 8.30 (2021)
Грустный и не простой фильм о трагедии конкретных людей и о любви. О любви Сары к другу детства, который видит в ней больше все таки друга. О любви Жана — всепоглощающей, запретной и такой настоящей. О любви Жака — эгоистичной, приводящей к катастрофическим последствиям. А вокруг война, которая усугубляет все в сотни раз. Как важно в такое время сохранить в себе надежду, не в пасть в отчаяние и пронести свою любовь, не растеряв ни крупицы. Герои этого фильма доказывают нам, что это возможно.

Актеры прекрасно справились со своими ролями. Им веришь и это главное. Есть что-то щемящее и проникающее внутрь тебя… Наверное это и есть актерский талант — донести до зрителя мысль. Противопоставление войне веры и надежды. И пусть порой цена непомерна высока, а предел человеческих страданий зашкаливает, но в сердце есть любовь и она там будет всегда.
Качество: DVDRip
Формат: AVI
Видео кодек: DivX 5
Аудио кодек:AC3
Видео: DivX 5, 688x384 (16:9), 1701 kbps, 25 fps, 0,258 bpp
Аудио: AC3 / 2.0 / 48 kHz / 192 kbps / 16 bit

General
Complete name : D:\torrent\Lubovy.o.kotoroy.molhat.2005.DivX.DVDRip.avi
Format : AVI
Format/Info : Audio Video Interleave
File size : 1.37 GiB
Duration : 1h 42mn
Overall bit rate : 1 904 Kbps
Writing application : VirtualDubMod 1.5.10.2 (build 2540/release)
Writing library : VirtualDubMod build 2540/release

Video
ID : 0
Format : MPEG-4 Visual
Format settings, BVOP : 3
Format settings, QPel : No
Format settings, GMC : No warppoints
Format settings, Matrix : Default (H.263)
Muxing mode : Packed bitstream
Codec ID : DX50
Codec ID/Hint : DivX 5
Duration : 1h 42mn
Bit rate : 1 702 Kbps
Width : 688 pixels
Height : 384 pixels
Display aspect ratio : 16:9
Frame rate : 25.000 fps
Color space : YUV
Chroma subsampling : 4:2:0
Bit depth : 8 bits
Scan type : Progressive
Compression mode : Lossy
Bits/(Pixel*Frame) : 0.258
Stream size : 1.22 GiB (89%)
Writing library : DivX 6.8.3-6.8.4 (UTC 2008-06-07)

Audio
ID : 1
Format : AC-3
Format/Info : Audio Coding 3
Mode extension : CM (complete main)
Codec ID : 2000
Duration : 1h 42mn
Bit rate mode : Constant
Bit rate : 192 Kbps
Channel(s) : 2 channels
Channel positions : Front: L R
Sampling rate : 48.0 KHz
Bit depth : 16 bits
Compression mode : Lossy
Stream size : 141 MiB (10%)
Alignment : Split accross interleaves
Interleave, duration : 40 ms (1.00 video frame)
Interleave, preload duration : 500 ms


pb.wtf



Скачать Любовь, о которой молчат через торрент http://i5.imageban.ru/out/2014/12/07/5abcad71b684a066a9b96647afa267e8.jpg Скачать фильм Любовь, о которой молчат через торрент бесплантно в хорошем качестве Описание: Фильм о жизни геев и евреев при нацистах в годы войны. Париж, 1942 год. Сара, молодая еврейка, чью семью замучило гестапо, ... 7.5 10 2
Торрент: Зарегистрирован [2014-12-07 16:32] · скачан: 16 раз
Статус: √ проверено
Размер: 1.37 GB
Как cкачать? Как скачать Любовь, о которой молчат через торрент | UTorrent

28-11-2019 20:33  

Отключить всю рекламу на сайте

    Дорогой пользователь! Огромная просьба, поблагодарите релизера, оцените раздачу и оставьте свои комментарий, если Вы скачали Любовь, о которой молчат через торрент бесплатно! Внесите свою лепту в развитие PiratBit!
    Комментировать посты могут только пользователи прошедшие не сложную регистрацию
    Показать сообщения:    

    Любовь, о которой молчат через торрент
    Скачать бесплатно Любовь, о которой молчат
    Любовь, о которой молчат скачать торрент
    Любовь, о которой молчат смотреть онлайн
    Cкачать фильм Любовь, о которой молчат бесплатно
    Любовь, о которой молчат скачать торрент в хорошем качестве
    Любовь, о которой молчат смотреть онлайн бесплатно в хорошем качестве


    Вы не можете начинать темы
    Вы не можете отвечать на сообщения
    Вы не можете редактировать свои сообщения
    Вы не можете удалять свои сообщения
    Вы не можете голосовать в опросах
    Вы не можете прикреплять файлы к сообщениям
    Вы можете скачивать файлы