2 сезон

iTunes

MVO

1

2 сезон

iTunes

iTunes

1 сезон

RePack

30

Новинка

ВАЖНО

ИГРА 18+

pack

RePack

MK11
pack

Легкие деньги

RePack

jed

RePack

fifa19

RePack

RDR2

RePack

NEED FOR SPEED™ PAYBACK

4 сезон

9 сезон

Бесстыжие 9 сезон

Все сериалы

все сериалы на PB.wtf

RePack

FAR CRY 5

Anonymous, доброй ночи, мы не успеваем собрать деньги на оплату серверов за декабрь и январь, помогите нам пожалуйста в это трудное время. В качестве благодарности мы отключим Вам всю рекламу на сайте (укажите свой ник в строку Ваше имя)!

×
  
Magnet ссылка

Возмездие / The Railway Man (Джонатан Теплицки / Jonathan Teplitzky) [2013, Австралия, Великобритания, драма, биография, BDRip-AVC, Профессиональный двухголосый ] pb.wtf

Возмездие через торрент pb.wtf

Размер: 2.13 GB | Добавлен: 6 лет 1 мес. назад | Торрент скачан:277 раз
Скачать  

08-12-2014 00:04 Возмездие Скачать торрент  

Возмездие / The Railway Man

Год выпуска: 2013
Страна: Австралия, Великобритания
Жанр: драма, биография
Продолжительность: 01:56:37
Перевод: Профессиональный двухголосый [Пиратская Студия]
Субтитры: Русские, английские
Режиссер: Джонатан Теплицки / Jonathan Teplitzky
В ролях:


Джереми Ирвин (Young Eric), Колин Фёрт (Eric), Николь Кидман (Patti), Хироюки Санада (Takeshi Nagase), Танрох Ишида (Young Takeshi Nagase), Стеллан Скарсгард (Finlay), Сэм Рид (Young Finlay), Том Хоббс (Thorlby), Акос Армонт (Jackson), Бен Элдридж (Baliff), Майкл МакКензи (Sutton), Джеффри Даунтон (Burton)

Описание:
История Эрика Ломакса. Во время Второй мировой войны этот британский офицер был схвачен японскими войсками, вследствие чего прошел все ужасы военных лагерей, где его пытали. В плену он вынужден был участвовать в строительстве железной дороги. После освобождения, лейтенанта Ломакса произвели в капитаны.
Десятилетия спустя долгое время мечтавший о возмездии военный решился на примирение, для чего встретился с одним из своих мучителей на мосту через реку Квай.

Рейтинг:
Бюджет: $18 000 000
MPAA: R - Лицам до 17 лет обязательно присутствие взрослого
Качество: BDRip-AVC
Формат: MKV
Видео кодек:AVC
Аудио кодек:AC3
Видео: AVC, 1032x430 (2.40:1), 1782 kbps, 23,976 fps, 0,167 bpp
Аудио №1: русский / AC3 / 5.1 / 48 kHz / 384 kbps / 16 bit
Аудио №2: английский / AC3 / 5.1 / 48 kHz / 448 kbps / 16 bit


General
Unique ID : 181221447491904813078374422428799934606 (0x8855FB31D2A42A0091DED5415B27208E)
Complete name : D:\Users\_KaisiK_\uTorrent\КИНО\Vozmezdiye.2013.DUAL.BDRip.x264.potroks.mkv
Format : Matroska
Format version : Version 4 / Version 2
File size : 2.13 GiB
Duration : 1h 56mn
Overall bit rate : 2 610 Kbps
Movie name : The Railway Man (2013) - rip by potroks
Encoded date : UTC 2014-12-07 08:08:40
Writing application : mkvmerge v5.9.0 ('On The Loose') built on Dec 15 2012 16:39:58
Writing library : libebml v1.3.0 + libmatroska v1.4.0

Video
ID : 1
Format : AVC
Format/Info : Advanced Video Codec
Format profile : High@L4.1
Format settings, CABAC : Yes
Format settings, ReFrames : 10 frames
Codec ID : V_MPEG4/ISO/AVC
Duration : 1h 56mn
Bit rate : 1 782 Kbps
Width : 1 032 pixels
Height : 430 pixels
Display aspect ratio : 2.40:1
Frame rate : 23.976 fps
Color space : YUV
Chroma subsampling : 4:2:0
Bit depth : 8 bits
Scan type : Progressive
Bits/(Pixel*Frame) : 0.167
Stream size : 1.41 GiB (66%)
Title : potroks
Writing library : x264 core 130 r2273 b3065e6
Encoding settings : cabac=1 / ref=10 / deblock=1:-2:-2 / analyse=0x3:0x133 / me=umh / subme=11 / psy=1 / psy_rd=1.00:0.04 / mixed_ref=1 / me_range=32 / chroma_me=1 / trellis=2 / 8x8dct=1 / cqm=0 / deadzone=21,11 / fast_pskip=0 / chroma_qp_offset=-3 / threads=9 / lookahead_threads=6 / sliced_threads=0 / nr=0 / decimate=0 / interlaced=0 / bluray_compat=0 / constrained_intra=0 / bframes=11 / b_pyramid=2 / b_adapt=2 / b_bias=0 / direct=3 / weightb=1 / open_gop=0 / weightp=2 / keyint=250 / keyint_min=23 / scenecut=40 / intra_refresh=0 / rc_lookahead=60 / rc=2pass / mbtree=0 / bitrate=1782 / ratetol=1.0 / qcomp=0.70 / qpmin=0 / qpmax=69 / qpstep=4 / cplxblur=20.0 / qblur=0.5 / vbv_maxrate=20000 / vbv_bufsize=20000 / nal_hrd=none / ip_ratio=1.35 / pb_ratio=1.25 / aq=1:0.80
Language : English
Default : Yes
Forced : No

Audio #1
ID : 2
Format : AC-3
Format/Info : Audio Coding 3
Mode extension : CM (complete main)
Codec ID : A_AC3
Duration : 1h 56mn
Bit rate mode : Constant
Bit rate : 384 Kbps
Channel(s) : 6 channels
Channel positions : Front: L C R, Side: L R, LFE
Sampling rate : 48.0 KHz
Bit depth : 16 bits
Compression mode : Lossy
Delay relative to video : 16s 200ms
Stream size : 320 MiB (15%)
Title : DVO | DD 5.1 @ 384 kbps - Пиратская Студия
Language : Russian
Default : Yes
Forced : No

Audio #2
ID : 3
Format : AC-3
Format/Info : Audio Coding 3
Mode extension : CM (complete main)
Codec ID : A_AC3
Duration : 1h 56mn
Bit rate mode : Constant
Bit rate : 448 Kbps
Channel(s) : 6 channels
Channel positions : Front: L C R, Side: L R, LFE
Sampling rate : 48.0 KHz
Bit depth : 16 bits
Compression mode : Lossy
Stream size : 374 MiB (17%)
Title : Original | DD 5.1 @ 448 kbps
Language : English
Default : No
Forced : No

Text #1
ID : 4
Format : UTF-8
Codec ID : S_TEXT/UTF8
Codec ID/Info : UTF-8 Plain Text
Title : Gorushka
Language : Russian
Default : No
Forced : No

Text #2
ID : 5
Format : UTF-8
Codec ID : S_TEXT/UTF8
Codec ID/Info : UTF-8 Plain Text
Title : Notabenoid
Language : Russian
Default : No
Forced : No

Text #3
ID : 6
Format : UTF-8
Codec ID : S_TEXT/UTF8
Codec ID/Info : UTF-8 Plain Text
Title : Full
Language : English
Default : No
Forced : No

Text #4
ID : 7
Format : UTF-8
Codec ID : S_TEXT/UTF8
Codec ID/Info : UTF-8 Plain Text
Title : SDH
Language : English
Default : No
Forced : No

Menu
00:08:55.701 : en:(01)00:08:55:701
00:18:53.715 : en:(02)00:18:53:715
00:27:10.962 : en:(03)00:27:10:962
00:35:47.687 : en:(04)00:35:47:687
00:45:22.261 : en:(05)00:45:22:261
00:53:36.880 : en:(06)00:53:36:880
01:04:01.170 : en:(07)01:04:01:170
01:12:36.310 : en:(08)01:12:36:310
01:21:43.231 : en:(09)01:21:43:231
01:29:30.073 : en:(10)01:29:30:073
01:39:53.070 : en:(11)01:39:53:070

[/code]
pb.wtf



Скачать Возмездие через торрент http://i65.fastpic.ru/big/2014/1208/39/7967e618169d2a54a8b870676d039039.png Скачать фильм Возмездие через торрент бесплантно в хорошем качестве Описание: История Эрика Ломакса. Во время Второй мировой войны этот британский офицер был схвачен японскими войсками, вследствие чего ... 9.6 10 5
Торрент: Зарегистрирован [2014-12-08 00:04] · скачан: 277 раз
Статус: T временная
Размер: 2.13 GB
Как cкачать? Как скачать Возмездие через торрент | UTorrent

% Раздел Тема Автор DL S | L
T Фильмы 2013 [DVDrip, WEB-DLRip, HDrip] [ 1.46 GB ] Возмездие / The Railway Man [2013 Австралия Швейцария биография HDRip ] / Чистый звук Ворон Скачать
1 | 0
Фильмы 2013 [DVDrip, WEB-DLRip, HDrip] [ 1.46 GB ] Возмездие / The Railway Man [2013 биография HDRip] diletant Скачать
1 | 0
T Фильмы 2013 (Звук TS, Cam, VO, DVO) [ 1.47 GB ] Возмездие / The Railway Man [2013 Австралия биография HDRipЛюбительский [qwerty & R.A.I.M] Ворон Скачать
1 | 0
Фильмы без перевода [ 698 MB ] Возмездие / The Railway Man [2013 биография HDRip Оригинал] makarevich Скачать
1 | 0

28-11-2019 20:33  

Отключить всю рекламу на сайте

    Дорогой пользователь! Огромная просьба, поблагодарите релизера, оцените раздачу и оставьте свои комментарий, если Вы скачали Возмездие через торрент бесплатно! Внесите свою лепту в развитие PiratBit!
    Комментировать посты могут только пользователи прошедшие не сложную регистрацию
    Показать сообщения:    

    Возмездие через торрент
    Скачать бесплатно Возмездие
    Возмездие скачать торрент
    Возмездие смотреть онлайн
    Cкачать фильм Возмездие бесплатно
    Возмездие скачать торрент в хорошем качестве
    Возмездие смотреть онлайн бесплатно в хорошем качестве


    Вы не можете начинать темы
    Вы не можете отвечать на сообщения
    Вы не можете редактировать свои сообщения
    Вы не можете удалять свои сообщения
    Вы не можете голосовать в опросах
    Вы не можете прикреплять файлы к сообщениям
    Вы можете скачивать файлы