Ссылка на приватное зеркало нашего сайта всего за 1$. Внимание количество ограничено!!!

2 сезон

iTunes

1 сезон

1

iTunes

iTunes

iTunes

1 сезон

RePack

30

ИГРА 18+

pack

ВАЖНО

!!Акция!!

Alien_RageХит недели

RePack

MK11
pack

Забери бонус

RePack

jed

!!Акция!!

Alien_Rage

RePack

fifa19

RePack

Assassins Creed: Odyssey

RePack

NEED FOR SPEED™ PAYBACK

4 сезон

9 сезон

Бесстыжие 9 сезон

Все сериалы

все сериалы на PB.wtf

RePack

FAR CRY 5
  

Прости за любовь / Perdona si te llamo amor (Хоакин Льямас) [2014 г., Мелодрама, BDRip 720p, Dub, Чистый звук] pb.wtf

Прости за любовь через торрент pb.wtf

Размер: 5.72 GB | Добавлен: 5 лет 10 мес. назад | Торрент скачан:92 раза
Скачать  

08-12-2014 08:15 Прости за любовь Скачать торрент  

Прости за любовь / Perdona si te llamo amorГод выпуска: 2014
Страна: Испания
Жанр: Мелодрама
Продолжительность: 01:59:47
Перевод: Дубляж, Чистый звук

Режиссер: Хоакин Льямас

Премьера в мире: 19 июня 2014



В ролях: Алехандро Батльори, Палома Блойд, Джоэль Боскед, Кристина Брондо, Пабло Чьяпелья, Адрия Кольядо, Хан Корнет, Ракель Дальмасес, Аурели дель Позо, Лусия Дельгадо

Описание: Спокойный представительный Алекс знакомится со взбалмошной Никки. Несмотря на то, что они полные противоположности и постоянно ссорятся, Алекс и Никки начинают встречаться. Но проблема не только в непохожих характерах, главная заминка в 20-летней разнице в возрасте — ему 37, а ей 17.

Качество: BDRip 720p
Формат: MKV

Видео кодек: H264
Аудио кодек: AC-3
Видео: AVC 1280x536 (2.40:1), 24.000 fps, ~6000 Кбит/сек
Аудио#1: AC-3, 192 Кбит/сек, 2 Канала, 48.0 КГц
Аудио#2: AC-3 640 Кбит/сек, 6 Каналов, 48.0 КГц




Общее
Уникальный идентификатор : 229417761988410010884854352440860710757 (0xAC9840F655D5B381AAC7E4B2E80D9765)
Полное имя : D:\UnderVerse\Временные\Pr0st1.za-ljub0v.2014.D.BDRip.720p.mkv
Формат : Matroska
Версия формата : Version 4 / Version 2
Размер файла : 5,72 Гбайт
Продолжительность : 1 ч. 59 м.
Общий поток : 6827 Кбит/сек
Дата кодирования : UTC 2014-12-07 21:43:40
Программа кодирования : mkvmerge v7.2.0 ('On Every Street') 64bit built on Sep 13 2014 15:52:10
Библиотека кодирования : libebml v1.3.0 + libmatroska v1.4.1
_STATISTICS_WRITING_APP : mkvmerge v7.2.0 ('On Every Street') 64bit built on Sep 13 2014 15:52:10
_STATISTICS_WRITING_DATE_UTC : 2014-12-07 21:43:40
_STATISTICS_TAGS : BPS DURATION NUMBER_OF_FRAMES NUMBER_OF_BYTES
DURATION : 01:59:47.072000000
NUMBER_OF_FRAMES : 224596
NUMBER_OF_BYTES : 172489728

Видео
Идентификатор : 1
Формат : AVC
Формат/Информация : Advanced Video Codec
Профиль формата : High@L4.1
Параметр CABAC формата : Да
Параметр ReFrames формата : 4 кадра
Идентификатор кодека : V_MPEG4/ISO/AVC
Продолжительность : 1 ч. 59 м.
Битрейт : 6000 Кбит/сек
Ширина : 1280 пикселей
Высота : 536 пикселей
Соотношение сторон : 2,40:1
Режим частоты кадров : Постоянный
Частота кадров : 24,000 кадра/сек
Цветовое пространство : YUV
Субдискретизация насыщенности : 4:2:0
Битовая глубина : 8 бит
Тип развёртки : Прогрессивная
Бит/(Пиксели*Кадры) : 0.364
Размер потока : 4,91 Гбайт (86%)
Библиотека кодирования : x264 core 142 r2431 ac76440
Настройки программы : cabac=1 / ref=4 / deblock=1:-2:-1 / analyse=0x3:0x113 / me=umh / subme=8 / psy=1 / psy_rd=1.00:0.15 / mixed_ref=1 / me_range=16 / chroma_me=1 / trellis=2 / 8x8dct=1 / cqm=0 / deadzone=21,11 / fast_pskip=1 / chroma_qp_offset=-3 / threads=24 / lookahead_threads=4 / sliced_threads=0 / nr=0 / decimate=1 / interlaced=0 / bluray_compat=0 / constrained_intra=0 / bframes=3 / b_pyramid=2 / b_adapt=1 / b_bias=0 / direct=1 / weightb=1 / open_gop=0 / weightp=2 / keyint=240 / keyint_min=24 / scenecut=40 / intra_refresh=0 / rc_lookahead=40 / rc=2pass / mbtree=1 / bitrate=6000 / ratetol=1.0 / qcomp=0.60 / qpmin=0 / qpmax=69 / qpstep=4 / cplxblur=20.0 / qblur=0.5 / vbv_maxrate=30000 / vbv_bufsize=20000 / nal_hrd=none / filler=0 / ip_ratio=1.40 / aq=1:1.00
Язык : Spanish
Default : Да
Forced : Нет
_STATISTICS_WRITING_APP : mkvmerge v7.2.0 ('On Every Street') 64bit built on Sep 13 2014 15:52:10
_STATISTICS_WRITING_DATE_UTC : 2014-12-07 21:43:40
_STATISTICS_TAGS : BPS DURATION NUMBER_OF_FRAMES NUMBER_OF_BYTES
DURATION : 01:59:47.125000000
NUMBER_OF_FRAMES : 172491
NUMBER_OF_BYTES : 5389290617

Аудио #1
Идентификатор : 2
Формат : AC-3
Формат/Информация : Audio Coding 3
Расширение режима : CM (complete main)
Параметр Endianness формата : Big
Идентификатор кодека : A_AC3
Продолжительность : 1 ч. 59 м.
Вид битрейта : Постоянный
Битрейт : 192 Кбит/сек
Каналы : 2 канала
Расположение каналов : Front: L R
Частота : 48,0 КГц
Битовая глубина : 16 бит
Метод сжатия : С потерями
Размер потока : 165 Мбайт (3%)
Язык : Russian
Default : Да
Forced : Нет

Аудио #2
Идентификатор : 3
Формат : AC-3
Формат/Информация : Audio Coding 3
Расширение режима : CM (complete main)
Параметр Endianness формата : Big
Идентификатор кодека : A_AC3
Продолжительность : 1 ч. 59 м.
Вид битрейта : Постоянный
Битрейт : 640 Кбит/сек
Каналы : 6 каналов
Расположение каналов : Front: L C R, Side: L R, LFE
Частота : 48,0 КГц
Битовая глубина : 16 бит
Метод сжатия : С потерями
Размер потока : 549 Мбайт (9%)
Заголовок : Ac3 5.1@640 kbps
Язык : Spanish
Default : Нет
Forced : Нет

pb.wtf



Скачать Прости за любовь через торрент http://i84.fastpic.ru/big/2016/0903/51/dadd71110065369b28292e3c73582e51.png Скачать фильм Прости за любовь через торрент бесплантно в хорошем качестве Описание: Спокойный представительный Алекс знакомится со взбалмошной Никки. Несмотря на то, что они полные противоположности и постоянно ... 9.7 10 6
Info! Золотая раздача, скачанное не засчитывается.
Торрент: Зарегистрирован [2014-12-08 08:15] · скачан: 92 раз
Статус: √ проверено
Размер: 5.72 GB
Как cкачать? Как скачать Прости за любовь через торрент | qTorrent

% Раздел Тема Автор DL S | L
Фильмы 2014 [DVDrip, WEB-DLRip, HDrip] [ 2.14 GB ] Прости за любовь / Perdona si te llamo amor [2014 HDRip ] coc900 Скачать
1 | 0
T Фильмы 2014 [DVDrip, WEB-DLRip, HDrip] [ 1.46 GB ] Прости за любовь / Perdona si te llamo amor (2014 HDRip |DUB Чистый звук] Ворон Скачать
1 | 0
T Фильмы 2014 [DVDrip, WEB-DLRip, HDrip] [ 2.19 GB ] Прости за любовь / Perdona si te llamo amor (2014 HDRip |DUB Чистый звук] Ворон Скачать
1 | 0


Последний раз редактировалось: alaray999 (2014-12-08 08:38), всего редактировалось 2 раз(а)

28-11-2019 20:33  

Отключить всю рекламу на сайте

    Дорогой пользователь! Огромная просьба, поблагодарите релизера, оцените раздачу и оставьте свои комментарий, если Вы скачали Прости за любовь через торрент бесплатно! Внесите свою лепту в развитие PiratBit!
    Комментировать посты могут только пользователи прошедшие не сложную регистрацию
    Показать сообщения:    

    Прости за любовь через торрент
    Скачать бесплатно Прости за любовь
    Прости за любовь скачать торрент
    Прости за любовь смотреть онлайн
    Cкачать фильм Прости за любовь бесплатно
    Прости за любовь скачать торрент в хорошем качестве
    Прости за любовь смотреть онлайн бесплатно в хорошем качестве


    Вы не можете начинать темы
    Вы не можете отвечать на сообщения
    Вы не можете редактировать свои сообщения
    Вы не можете удалять свои сообщения
    Вы не можете голосовать в опросах
    Вы не можете прикреплять файлы к сообщениям
    Вы можете скачивать файлы